Поиск

[TR24][OF] Mose Allison - Mose In Your Ear - 1972/2011 (Vocal Jazz, Piano Blues)

[TR24][OF] Mose Allison - Mose In Your Ear - 1972/2011 (Vocal Jazz, Piano Blues)
Треклист:
Mose Allison - Mose In Your Ear Формат записи/Источник записи: [TR24][OF]
Наличие водяных знаков: Нет
Год издания/переиздания диска: 1972/2011
Жанр: Vocal Jazz, Piano Blues
Издатель (лейбл): Rhino/Warner Bros.
Продолжительность: 39:06
Наличие сканов в содержимом раздачи: Только обложка альбома
Треклист:
01. Look What You Made Me Do (3:29)
02. Fool's Paradise (4:57)
03. I Don't Worry About A Thing (2:42)
04. Powerhouse (8:43)
05. Hey, Good Lookin' (1:57)
06. I Ain't Got Nothin' But The Blues (4:26)
07. You Can Count On Me To Do My Part (2:35)
08. You Are My Sunshine (3:11)
09. Don't Forget To Smile (2:39)
10. The Seventh Son (4:26)
Personnel:
Mose Allison - piano, vocals
Clyde Flowers - bass
Eddie Charlton - drums
Rec.: live at “In You Ear” in Palo Alto, CA, April 26, 1972.
 
 
Об альбоме
Extraordinary musician Mose Allison leads the charge on this exhilarating live set that features bassist Clyde Flowers and drummer Eddie Charlton. The trio’s lush and magical performances are packed with fearless improvisations, blistering melodies and inspired playing. The album presents some of Allison’s most beloved compositions including “I Don’t Worry About A Thing”, “I Ain’t Got Nothin’ But The Blues”, “The Seventh Son”, “Fool’s Paradise”, and plenty more. The authentic crooner is simply dazzling.
This live session from 1972 features Mose Allison at his best. Performing with his working trio (bassist Clyde Flowers and drummer Eddie Charlton), Allison sounds quite inspired on such tunes as "Fool's Paradise," "I Don't Worry About A Thing," "Hey Good Lookin'," "I Ain't Got Nothin' But The Blues" and "The Seventh Son." Most memorable is his minor-toned downbeat ballad version of "You Are My Sunshine" which casts new meaning on the usually optimistic lyrics. This near-classic set is long overdue to be reissued on CD.

Контейнер: FLAC (*.flac)
Тип рипа: tracks
Разрядность: 24/192
Формат: PCM
Количество каналов: 2.0
 
 
Лог проверки качества
foobar2000 1.3.9 / Dynamic Range Meter 1.1.1
log date: 2017-11-11 23:34:33
--------------------------------------------------------------------------------
Analyzed: Mose Allison / Mose In Your Ear
--------------------------------------------------------------------------------
DR         Peak         RMS     Duration Track
--------------------------------------------------------------------------------
DR11      -0.54 dB   -14.27 dB      3:29 01-Look What You Made Me Do
DR15      -0.20 dB   -18.32 dB      4:57 02-Fool's Paradise
DR13       0.00 dB   -16.60 dB      2:42 03-I Don't Worry About A Thing
DR12      -0.30 dB   -17.37 dB      8:43 04-Powerhouse
DR12      -1.48 dB   -16.76 dB      1:57 05-Hey, Good Lookin'
DR13       0.00 dB   -17.05 dB      4:26 06-I Ain't Got Nothin' But The Blues
DR11      -0.90 dB   -15.14 dB      2:35 07-You Can Count On Me To Do My Part
DR12      -1.15 dB   -17.86 dB      3:11 08-You Are My Sunshine
DR12      -0.43 dB   -15.75 dB      2:39 09-Don't Forget To Smile
DR10      -0.76 dB   -14.74 dB      4:26 10-The Seventh Son
--------------------------------------------------------------------------------
Number of tracks:  10
Official DR value: DR12
Samplerate:        192000 Hz
Channels:          2
Bits per sample:   24
Bitrate:           4887 kbps
Codec:             FLAC
================================================================================
Источник: hdtracks.com
02:49
663
Нет комментариев. Ваш будет первым!