Поиск

[TR24][OF] Mose Allison - The Word from Mose Allison - 1964/2011 (Jazz Blues)

[TR24][OF] Mose Allison - The Word from Mose Allison - 1964/2011 (Jazz Blues)
Треклист:
Mose Allison / The Word from Mose Allison
Формат записи/Источник записи: [TR24][OF]
Наличие водяных знаков: Нет
Год издания/переиздания диска: 1964/2011
Жанр: Jazz Blues
Издатель(лейбл): Rhino Atlantic
Продолжительность: 00:30:37
Наличие сканов в содержимом раздачи: Только обложка альбома
Треклист:
01 - Foolkiller (2:28)
02 - One Of These Days (3:04)
03 - Look Here (2:15)
04 - Days Like This (2:55)
05 - Your Red Wagon (2:17)
06 - Wild Man (1:57)
07 - Rollin' Stone (3:02)
08 - New Parchman (3:07)
09 - Don't Forget To Smile (2:49)
10 - I'm Not Talking (2:32)
11 - Lost Mind (4:12)
Контейнер: FLAC (*.flac)
Тип рипа: tracks
Разрядность: 24/192
Формат: PCM
Количество каналов: 2.0
 
Official DR value: DR13
foobar2000 1.3.13 / Dynamic Range Meter 1.1.1
log date: 2016-12-18 01:33:54
--------------------------------------------------------------------------------
Analyzed: Mose Allison / The Word from Mose
--------------------------------------------------------------------------------
DR         Peak         RMS     Duration Track
--------------------------------------------------------------------------------
DR13      -1.36 dB   -16.43 dB      2:28 01-Foolkiller
DR12      -2.63 dB   -18.60 dB      3:04 02-One Of These Days
DR12      -3.33 dB   -17.10 dB      2:15 03-Look Here
DR14       0.00 dB   -17.69 dB      2:55 04-Days Like This
DR12      -1.93 dB   -16.94 dB      2:17 05-Your Red Wagon
DR14      -0.47 dB   -18.52 dB      1:57 06-Wild Man
DR14      -1.19 dB   -18.63 dB      3:02 07-Rollin' Stone
DR14      -0.87 dB   -18.88 dB      3:07 08-New Parchman
DR12      -1.50 dB   -17.34 dB      2:49 09-Don't Forget To Smile
DR14       0.00 dB   -17.76 dB      2:32 10-I'm Not Talking
DR13      -0.80 dB   -16.37 dB      4:12 11-Lost Mind
--------------------------------------------------------------------------------
Number of tracks:  11
Official DR value: DR13
Samplerate:        192000 Hz
Channels:          2
Bits per sample:   24
Bitrate:           5875 kbps
Codec:             FLAC
================================================================================
 
 
Спектры частот
 
 
 
Состав
Mose Allison, piano, vocals
Roy Lundberg, drums
Ben Tucker, bass
 
 
Об исполнителе (группе)
Mose Allison is one of the oldest touring songwriters in recent history. Born in 1927, and still performing, his music has reached many generations of blues and rock artists, including Jimi Hendrix, The Rolling Stones, Tom Waits and The Yardbirds.
 
 
Об альбоме (сборнике)
The Word From Mose Allison finds renowned jazz pianist/vocalist Mose Allison integrating his signature bluesy sound and effortless piano playing on this breathtaking collection comprised of seven original compositions and four exquisite covers. Allison’s refined style and laid-back vocals can be experienced on a chilling take of Muddy Water’s “Rollin’ Stone.” This compelling masterpiece can be heard with new clarity and depth on this super hi-res download.
Источник (релизер):
06:46
722
Нет комментариев. Ваш будет первым!