Поиск

[TR24][OF] Mose Allison - Wild Man On The Loose - 1966/2011 (Vocal Jazz, Piano Blues)

[TR24][OF] Mose Allison - Wild Man On The Loose - 1966/2011 (Vocal Jazz, Piano Blues)
Треклист:
Mose Allison - Wild Man On The Loose Формат записи/Источник записи: [TR24][OF]
Наличие водяных знаков: Нет
Год издания/переиздания диска: 1966/2011
Жанр: Vocal Jazz, Piano Blues
Издатель (лейбл): Rhino Atlantic
Продолжительность: 33:02
Наличие сканов в содержимом раздачи: Только обложка альбома
Треклист:
01. Wild Man (2:08)
02. No Trouble Livin' (2:19)
03. Night Watch (4:33)
04. What's With You (2:56)
05. Power House (5:04)
06. You Can Count On Me To Do My Part (2:14)
07. Never More (4:30)
08. That's The Stuff You Gotta Watch (2:13)
09. War Horse (7:06)
Personnel:
Mose Allison - piano, vocals
Earl May - bass
Paul Motian - drums
Rec.: Atlantic Studios, NYC, NY, January 26 & 28, 1965.
 
 
Об альбоме
Mose Allison is a master of extended technique. On Wild Man on the Loose, the virtuoso musician is joined by spectacular bassist Earl May and legendary drummer Paul Motian. The trio embeds a rootsy New Orleans sound into an album of mostly originals. With soulful execution, simplistic touches and Allison’s timeless precision, the album is an enchanting masterpiece. Stand out moments include “Wild Man on the Loose”, “War Horse,” “No Trouble Living” and the instrumental stunner “Power House.” This super pristine hi-res download is sonically mesmerizing.
The lion's share of recordings by this artist are in a piano trio setting, and this mid-'60s session finds him working with one of the best combinations he ever had. Bassist Earl May is a solid, inventive player who is beautifully recorded here with a sound that can have the soulfulness of a classical guitar at times. On drums, Paul Motian is something of a legend, and here is heard at his most straight-ahead, simple and swinging with some nice touches from the brushes. He is also recorded extremely well, giving the pianist a really beautiful base to take off from, as well as making the overall tracks sound brilliant. The art of recording piano trios in this manner, with such a clear and immediate sound, seems to have been lost unfortunately. Sometimes a weak link on his records, even the Allison instrumentals come across forcefully. Is there a Cecil Taylor influence, or is it just the same Duke Ellington touches heard in Taylor's music? The instrumental track "Power House" is one of the finest numbers of this sort Allison has recorded. Vocal performances are smooth as always, although the set does not contain any totally classic numbers.

Контейнер: FLAC (*.flac)
Тип рипа: tracks
Разрядность: 24/192
Формат: PCM
Количество каналов: 2.0
 
 
Лог проверки качества
foobar2000 1.3.9 / Dynamic Range Meter 1.1.1
log date: 2017-11-12 23:02:56
--------------------------------------------------------------------------------
Analyzed: Mose Allison / Wild Man On The Loose
--------------------------------------------------------------------------------
DR         Peak         RMS     Duration Track
--------------------------------------------------------------------------------
DR13      -1.91 dB   -18.35 dB      2:08 01-Wild Man
DR14      -1.02 dB   -19.11 dB      2:19 02-No Trouble Livin'
DR13      -3.63 dB   -20.47 dB      4:33 03-Night Watch
DR16      -0.99 dB   -21.76 dB      2:56 04-What's With You
DR11       0.00 dB   -15.51 dB      5:04 05-Power House
DR12      -1.28 dB   -17.51 dB      2:14 06-You Can Count On Me To Do My Part
DR14      -7.01 dB   -23.60 dB      4:30 07-Never More
DR12      -0.11 dB   -16.15 dB      2:13 08-That's The Stuff You Gotta Watch
DR10      -2.62 dB   -17.01 dB      7:06 09-War Horse
--------------------------------------------------------------------------------
Number of tracks:  9
Official DR value: DR13
Samplerate:        192000 Hz
Channels:          2
Bits per sample:   24
Bitrate:           5791 kbps
Codec:             FLAC
================================================================================
Источник: hdtracks.com
02:51
786
Нет комментариев. Ваш будет первым!