Поиск

[TR24][OF] VA (Madeleine Peyroux, George Benson, Jamie Cullum, Bebel Gilberto, Laura Mvula, Selah Sue, Imany, The Amazing Keystone Big Band a.o.) - Jazz Loves Disney 2: A Kind of Magic - 2017 (Vocal Jazz, Jazz-Pop)

[TR24][OF] VA (Madeleine Peyroux, George Benson, Jamie Cullum, Bebel Gilberto, Laura Mvula, Selah Sue, Imany, The Amazing Keystone Big Band a.o.) - Jazz Loves Disney 2: A Kind of Magic - 2017 (Vocal Jazz, Jazz-Pop)
Треклист:
❤ ' ' ' ' ' ' ' '
' JAZZ loves DISNEY 2'
Жанр: Vocal Jazz, Jazz-Pop
Год издания: 2017
Издатель(лейбл): Verve
Страна исполнителя: International
Аудиокодек: FLAC (*.flac)
Разрядность: 24 bits / 96 kHz
Кол-во каналов: 2
Тип рипа: tracks
Продолжительность: 40:38
Источник (релизер): HDtracks
Наличие сканов: front + booklet.pdf
01. Bebel Gilberto – Beauty and the Beast (from Beauty & The Beast)
02. Imany – Some Day My Prince Will Come (from Snow White)
03. Jamie Cullum & Eric Cantona – Be Our Guest (from Beauty & The Beast)
04. Jacob Collier – Under the Sea (from The Little Mermaid)
05. Angélique Kidjo – Try Everything (from Zootopia)
06. The Amazing Keystone Big Band – Steamboat Willie
07. Thomas Dutronc – Les Corbeaux (from Dumbo)
08. Selah Sue – So This Is Love (from Cinderella)
09. Madeleine Peyroux – The Golden Touch (from The Golden Touch)
10. George Benson – You’ll Be in My Heart (from Tarzan)
11. Laura Mvula – Stay Awake (from Mary Poppins)
 
Лог проверки качества
foobar2000 1.3.12 / Замер динамического диапазона (DR) 1.1.1
Дата отчёта:  2018-01-21 17:49:19
--------------------------------------------------------------------------------
Анализ:   Various Artists / Jazz Loves Disney 2 - A Kind Of Magic
--------------------------------------------------------------------------------
DR         Пики         RMS           Продолжительность трека
--------------------------------------------------------------------------------
DR9       -0.20 дБ   -11.32 дБ      4:23 01-Beauty And The Beast
DR9       -0.20 дБ   -11.43 дБ      3:40 02-Some Day My Prince Will Come
DR7       -0.20 дБ   -10.17 дБ      4:53 03-Be Our Guest
DR8       -0.20 дБ    -9.85 дБ      4:39 04-Under the Sea
DR8       -0.20 дБ    -8.95 дБ      3:40 05-Try Everything
DR8       -0.20 дБ   -10.00 дБ      2:23 06-Steamboat Willie
DR6       -0.28 дБ    -8.38 дБ      3:05 07-Les corbeaux (French Version of 'When I See An Elephant Fly')
DR9       -0.20 дБ   -10.99 дБ      3:20 08-So This Is Love
DR7       -0.20 дБ    -9.88 дБ      3:06 09-The Golden Touch
DR8       -0.20 дБ   -10.55 дБ      4:07 10-You’ll Be In My Heart
DR10      -0.70 дБ   -13.49 дБ      3:22 11-Stay Awake
--------------------------------------------------------------------------------
Количество треков: 11
Реальные значения DR: DR8
Частота:   96000 Гц
Каналов:   2
Разрядность:   24
Битрейт:   2769 кбит/с
Кодек:   FLAC
================================================================================
Часть первая
07:50
729
Нет комментариев. Ваш будет первым!