Поиск

(Vocal Jazz) [CD] Anita O'Day - Anita O'Day Sings with Gene Krupa - 1985 (Japan Edition), FLAC (tracks+.cue), lossless

(Vocal Jazz) [CD] Anita O'Day - Anita O'Day Sings with Gene Krupa - 1985 (Japan Edition), FLAC (tracks+.cue), lossless
Треклист:
Anita O'Day - Anita O'Day Sings with Gene Krupa
Жанр: Vocal Jazz
Носитель: CD
Страна-производитель диска (релиза): Япония
Год издания: 1985
Издатель (лейбл): CBS/Sony
Номер по каталогу: 32DP 567
Страна исполнителя (группы): США
Аудиокодек: FLAC (*.flac)
Тип рипа: tracks+.cue
Битрейт аудио: lossless
Продолжительность: 49:33
Источник (релизер): crispi (what)
Наличие сканов в содержимом раздачи: сетевые
Треклист:
01. Georgia on My Mind (Gorrell-Carmichael) - 2:58
02. I Take to You (Warren-Gordon) - 2:35
03. Let Me Off Uptown (Evans-Bostic) - 3:10
04. Kick It (Bauer-Vernier) - 2:29
05. Stop, the Red Light's On (Miller) - 3:21
06. The Walls Keep Talking (Hill-Bauer) - 3:14
07. Skylark (Mercer-Carmichael) - 3:11
08. Bolero at the Savoy (Krupa-Biondi-Mundy-Carpenter) - 2:57
09. Thanks for the Boogie Ride (Buck-Mitchell) - 3:12
10. Pass the Bounce (Nemo) - 2:58
11. That's What You Think (Werner-Werner) - 3:18
12. Deliver Me to Tennessee (Hughes-Bradley-Smith) - 3:11
13. Massachusetts (Razaf-Roberts) - 3:18
14. Opus #1 (Oliver) - 3:00
15. Boogie Blues (Krupa-Biondi) - 3:27
16. Hop, Skip and Jump (Keller-Livingston-Prake) - 3:14
Состав:
Anita O'Day - vocals
Gene Krupa and His Orchestra
Roy Eldridge (#3,6,9) - trumpet, vocals
 
Лог создания рипа
X Lossless Decoder version 20151214 (149.1)
XLD extraction logfile from 2016-04-13 10:12:33 +0200
Anita O'Day / Anita O'Day Sings with Gene Krupa
Used drive : Apple SuperDrive (revision 2.03)
Media type : Pressed CD
Ripper mode : XLD Secure Ripper
Disable audio cache : OK for the drive with a cache less than 1375KiB
Make use of C2 pointers : NO
Read offset correction : 6
Max retry count : 20
Gap status : Analyzed, Appended (except HTOA)
TOC of the extracted CD
Track | Start | Length | Start sector | End sector
---------------------------------------------------------
1 | 00:00:00 | 02:58:25 | 0 | 13374
2 | 02:58:25 | 02:35:12 | 13375 | 25011
3 | 05:33:37 | 03:09:50 | 25012 | 39236
4 | 08:43:12 | 02:28:50 | 39237 | 50386
5 | 11:11:62 | 03:21:25 | 50387 | 65486
6 | 14:33:12 | 03:14:13 | 65487 | 80049
7 | 17:47:25 | 03:10:50 | 80050 | 94349
8 | 20:58:00 | 02:56:50 | 94350 | 107599
9 | 23:54:50 | 03:11:62 | 107600 | 121986
10 | 27:06:37 | 02:58:13 | 121987 | 135349
11 | 30:04:50 | 03:18:12 | 135350 | 150211
12 | 33:22:62 | 03:10:63 | 150212 | 164524
13 | 36:33:50 | 03:18:37 | 164525 | 179411
14 | 39:52:12 | 02:59:38 | 179412 | 192874
15 | 42:51:50 | 03:26:62 | 192875 | 208386
16 | 46:18:37 | 03:14:25 | 208387 | 222961
AccurateRip Summary
Disc not found in AccurateRip DB.
All Tracks
Album gain : -4.07 dB
Peak : 0.774414
Statistics
Read error : 0
Jitter error (maybe fixed) : 0
Retry sector count : 0
Damaged sector count : 0
Track 01
Filename : /Volumes/2TB archaeology/whatcd/_ups/Anita O'Day Sings with Gene Krupa (1985 Japan 32DP)/01 Georgia on My Mind.flac
Pre-gap length : 00:02:00
Track gain : -3.91 dB
Peak : 0.758362
CRC32 hash (test run) : 945D7088
CRC32 hash : 945D7088
CRC32 hash (skip zero) : 065C67DA
AccurateRip v1 signature : 00F205A2
AccurateRip v2 signature : 198444C2
->Track not present in AccurateRip database.
Statistics
Read error : 0
Jitter error (maybe fixed) : 0
Retry sector count : 0
Damaged sector count : 0
Track 02
Filename : /Volumes/2TB archaeology/whatcd/_ups/Anita O'Day Sings with Gene Krupa (1985 Japan 32DP)/02 I Take to You.flac
Pre-gap length : 00:02:00
Track gain : -1.99 dB
Peak : 0.719055
CRC32 hash (test run) : 7E764945
CRC32 hash : 7E764945
CRC32 hash (skip zero) : C111D3BC
AccurateRip v1 signature : 2DA221C7
AccurateRip v2 signature : 39C0B2BC
->Track not present in AccurateRip database.
Statistics
Read error : 0
Jitter error (maybe fixed) : 0
Retry sector count : 0
Damaged sector count : 0
Track 03
Filename : /Volumes/2TB archaeology/whatcd/_ups/Anita O'Day Sings with Gene Krupa (1985 Japan 32DP)/03 Let Me Off Uptown.flac
Pre-gap length : 00:02:00
Track gain : -3.77 dB
Peak : 0.736572
CRC32 hash (test run) : C32DD47E
CRC32 hash : C32DD47E
CRC32 hash (skip zero) : A79A2139
AccurateRip v1 signature : 33EF1399
AccurateRip v2 signature : C374E452
->Track not present in AccurateRip database.
Statistics
Read error : 0
Jitter error (maybe fixed) : 0
Retry sector count : 0
Damaged sector count : 0
Track 04
Filename : /Volumes/2TB archaeology/whatcd/_ups/Anita O'Day Sings with Gene Krupa (1985 Japan 32DP)/04 Kick It.flac
Pre-gap length : 00:02:00
Track gain : -5.11 dB
Peak : 0.682526
CRC32 hash (test run) : E051F072
CRC32 hash : E051F072
CRC32 hash (skip zero) : 32B53632
AccurateRip v1 signature : EB5B4894
AccurateRip v2 signature : 53E0EB8E
->Track not present in AccurateRip database.
Statistics
Read error : 0
Jitter error (maybe fixed) : 0
Retry sector count : 0
Damaged sector count : 0
Track 05
Filename : /Volumes/2TB archaeology/whatcd/_ups/Anita O'Day Sings with Gene Krupa (1985 Japan 32DP)/05 Stop, the Red Light's On.flac
Pre-gap length : 00:02:00
Track gain : -4.55 dB
Peak : 0.734650
CRC32 hash (test run) : 33202860
CRC32 hash : 33202860
CRC32 hash (skip zero) : 95D4DC88
AccurateRip v1 signature : C0186A02
AccurateRip v2 signature : AEF65B52
->Track not present in AccurateRip database.
Statistics
Read error : 0
Jitter error (maybe fixed) : 0
Retry sector count : 0
Damaged sector count : 0
Track 06
Filename : /Volumes/2TB archaeology/whatcd/_ups/Anita O'Day Sings with Gene Krupa (1985 Japan 32DP)/06 The Walls Keep Talking.flac
Pre-gap length : 00:02:00
Track gain : -3.30 dB
Peak : 0.710693
CRC32 hash (test run) : C38B21F9
CRC32 hash : C38B21F9
CRC32 hash (skip zero) : A4BECD74
AccurateRip v1 signature : 65047910
AccurateRip v2 signature : D31D9EC8
->Track not present in AccurateRip database.
Statistics
Read error : 0
Jitter error (maybe fixed) : 0
Retry sector count : 0
Damaged sector count : 0
Track 07
Filename : /Volumes/2TB archaeology/whatcd/_ups/Anita O'Day Sings with Gene Krupa (1985 Japan 32DP)/07 Skylark.flac
Pre-gap length : 00:02:00
Track gain : -2.92 dB
Peak : 0.585144
CRC32 hash (test run) : 8ACAD9EB
CRC32 hash : 8ACAD9EB
CRC32 hash (skip zero) : 2D28F4D9
AccurateRip v1 signature : CBB1D770
AccurateRip v2 signature : 7946E848
->Track not present in AccurateRip database.
Statistics
Read error : 0
Jitter error (maybe fixed) : 0
Retry sector count : 0
Damaged sector count : 0
Track 08
Filename : /Volumes/2TB archaeology/whatcd/_ups/Anita O'Day Sings with Gene Krupa (1985 Japan 32DP)/08 Bolero at the Savoy.flac
Pre-gap length : 00:02:00
Track gain : -4.28 dB
Peak : 0.745514
CRC32 hash (test run) : 57D49C69
CRC32 hash : 57D49C69
CRC32 hash (skip zero) : 6F741179
AccurateRip v1 signature : 2F304400
AccurateRip v2 signature : E5CA7F2F
->Track not present in AccurateRip database.
Statistics
Read error : 0
Jitter error (maybe fixed) : 0
Retry sector count : 0
Damaged sector count : 0
Track 09
Filename : /Volumes/2TB archaeology/whatcd/_ups/Anita O'Day Sings with Gene Krupa (1985 Japan 32DP)/09 Thanks for the Boogie Ride.flac
Pre-gap length : 00:02:00
Track gain : -2.18 dB
Peak : 0.773499
CRC32 hash (test run) : 24315F0E
CRC32 hash : 24315F0E
CRC32 hash (skip zero) : ED67D512
AccurateRip v1 signature : 842EC0F4
AccurateRip v2 signature : E2631CEA
->Track not present in AccurateRip database.
Statistics
Read error : 0
Jitter error (maybe fixed) : 0
Retry sector count : 0
Damaged sector count : 0
Track 10
Filename : /Volumes/2TB archaeology/whatcd/_ups/Anita O'Day Sings with Gene Krupa (1985 Japan 32DP)/10 Pass the Bounce.flac
Pre-gap length : 00:02:00
Track gain : -4.15 dB
Peak : 0.627747
CRC32 hash (test run) : 64475448
CRC32 hash : 64475448
CRC32 hash (skip zero) : 237F39B5
AccurateRip v1 signature : 817CA7B5
AccurateRip v2 signature : EDD14A57
->Track not present in AccurateRip database.
Statistics
Read error : 0
Jitter error (maybe fixed) : 0
Retry sector count : 0
Damaged sector count : 0
Track 11
Filename : /Volumes/2TB archaeology/whatcd/_ups/Anita O'Day Sings with Gene Krupa (1985 Japan 32DP)/11 That's What You Think.flac
Pre-gap length : 00:02:00
Track gain : -3.90 dB
Peak : 0.739990
CRC32 hash (test run) : C97BC5F8
CRC32 hash : C97BC5F8
CRC32 hash (skip zero) : 75351A41
AccurateRip v1 signature : A85ADEF4
AccurateRip v2 signature : ED443E24
->Track not present in AccurateRip database.
Statistics
Read error : 0
Jitter error (maybe fixed) : 0
Retry sector count : 0
Damaged sector count : 0
Track 12
Filename : /Volumes/2TB archaeology/whatcd/_ups/Anita O'Day Sings with Gene Krupa (1985 Japan 32DP)/12 Deliver Me to Tennessee.flac
Pre-gap length : 00:01:50
Track gain : -3.92 dB
Peak : 0.745300
CRC32 hash (test run) : A2879AC7
CRC32 hash : A2879AC7
CRC32 hash (skip zero) : 4EA6EA0E
AccurateRip v1 signature : DD79F932
AccurateRip v2 signature : 227350F9
->Track not present in AccurateRip database.
Statistics
Read error : 0
Jitter error (maybe fixed) : 0
Retry sector count : 0
Damaged sector count : 0
Track 13
Filename : /Volumes/2TB archaeology/whatcd/_ups/Anita O'Day Sings with Gene Krupa (1985 Japan 32DP)/13 Massachusetts.flac
Pre-gap length : 00:02:00
Track gain : -4.96 dB
Peak : 0.737915
CRC32 hash (test run) : 8980322B
CRC32 hash : 8980322B
CRC32 hash (skip zero) : 101660B6
AccurateRip v1 signature : 17E96B10
AccurateRip v2 signature : 5BACCA1D
->Track not present in AccurateRip database.
Statistics
Read error : 0
Jitter error (maybe fixed) : 0
Retry sector count : 0
Damaged sector count : 0
Track 14
Filename : /Volumes/2TB archaeology/whatcd/_ups/Anita O'Day Sings with Gene Krupa (1985 Japan 32DP)/14 Opus #1.flac
Pre-gap length : 00:02:00
Track gain : -4.91 dB
Peak : 0.722839
CRC32 hash (test run) : 3CAF287E
CRC32 hash : 3CAF287E
CRC32 hash (skip zero) : DEC87F61
AccurateRip v1 signature : 2B39990A
AccurateRip v2 signature : 896DF926
->Track not present in AccurateRip database.
Statistics
Read error : 0
Jitter error (maybe fixed) : 0
Retry sector count : 0
Damaged sector count : 0
Track 15
Filename : /Volumes/2TB archaeology/whatcd/_ups/Anita O'Day Sings with Gene Krupa (1985 Japan 32DP)/15 Boogie Blues.flac
Pre-gap length : 00:02:00
Track gain : -3.87 dB
Peak : 0.710144
CRC32 hash (test run) : 77F98750
CRC32 hash : 77F98750
CRC32 hash (skip zero) : 2984577F
AccurateRip v1 signature : 8B31100C
AccurateRip v2 signature : 7762A04D
->Track not present in AccurateRip database.
Statistics
Read error : 0
Jitter error (maybe fixed) : 0
Retry sector count : 0
Damaged sector count : 0
Track 16
Filename : /Volumes/2TB archaeology/whatcd/_ups/Anita O'Day Sings with Gene Krupa (1985 Japan 32DP)/16 Hop, Skip and Jump.flac
Pre-gap length : 00:02:00
Track gain : -2.32 dB
Peak : 0.774414
CRC32 hash (test run) : E8B08296
CRC32 hash : E8B08296
CRC32 hash (skip zero) : 6195031D
AccurateRip v1 signature : B2CDFBBD
AccurateRip v2 signature : EFE85694
->Track not present in AccurateRip database.
Statistics
Read error : 0
Jitter error (maybe fixed) : 0
Retry sector count : 0
Damaged sector count : 0
No errors occurred
End of status report
-----BEGIN XLD SIGNATURE-----
IFCEh9LaKzaouobbXwM3imQMWSS2ZT33buEYecypohhCbeSPSBneCNZjnhjt9Zhb.TUAv4aDwxId9AwoVSURUxhK3Z368KCYJKeKfm4
-----END XLD SIGNATURE-----
 
Содержание индексной карты (.CUE)
TITLE "Anita O'Day Sings with Gene Krupa"
PERFORMER "Anita O'Day"
REM GENRE "Jazz"
REM DATE "1985"
REM DISCID D80B9C10
REM REPLAYGAIN_ALBUM_GAIN -4.07 dB
REM REPLAYGAIN_ALBUM_PEAK 0.774414
FILE "01 - Georgia on My Mind.flac" WAVE
TRACK 01 AUDIO
TITLE "Georgia on My Mind"
REM REPLAYGAIN_TRACK_GAIN -3.91 dB
REM REPLAYGAIN_TRACK_PEAK 0.758362
INDEX 01 00:00:00
TRACK 02 AUDIO
TITLE "I Take to You"
REM REPLAYGAIN_TRACK_GAIN -1.99 dB
REM REPLAYGAIN_TRACK_PEAK 0.719055
INDEX 00 02:56:25
FILE "02 - I Take to You.flac" WAVE
INDEX 01 00:00:00
TRACK 03 AUDIO
TITLE "Let Me Off Uptown"
REM REPLAYGAIN_TRACK_GAIN -3.77 dB
REM REPLAYGAIN_TRACK_PEAK 0.736572
INDEX 00 02:33:12
FILE "03 - Let Me Off Uptown.flac" WAVE
INDEX 01 00:00:00
TRACK 04 AUDIO
TITLE "Kick It"
REM REPLAYGAIN_TRACK_GAIN -5.11 dB
REM REPLAYGAIN_TRACK_PEAK 0.682526
INDEX 00 03:07:50
FILE "04 - Kick It.flac" WAVE
INDEX 01 00:00:00
TRACK 05 AUDIO
TITLE "Stop, the Red Light's On"
REM REPLAYGAIN_TRACK_GAIN -4.55 dB
REM REPLAYGAIN_TRACK_PEAK 0.734650
INDEX 00 02:26:50
FILE "05 - Stop, the Red Light's On.flac" WAVE
INDEX 01 00:00:00
TRACK 06 AUDIO
TITLE "The Walls Keep Talking"
REM REPLAYGAIN_TRACK_GAIN -3.30 dB
REM REPLAYGAIN_TRACK_PEAK 0.710693
INDEX 00 03:19:25
FILE "06 - The Walls Keep Talking.flac" WAVE
INDEX 01 00:00:00
TRACK 07 AUDIO
TITLE "Skylark"
REM REPLAYGAIN_TRACK_GAIN -2.92 dB
REM REPLAYGAIN_TRACK_PEAK 0.585144
INDEX 00 03:12:13
FILE "07 - Skylark.flac" WAVE
INDEX 01 00:00:00
TRACK 08 AUDIO
TITLE "Bolero at the Savoy"
REM REPLAYGAIN_TRACK_GAIN -4.28 dB
REM REPLAYGAIN_TRACK_PEAK 0.745514
INDEX 00 03:08:50
FILE "08 - Bolero at the Savoy.flac" WAVE
INDEX 01 00:00:00
TRACK 09 AUDIO
TITLE "Thanks for the Boogie Ride"
REM REPLAYGAIN_TRACK_GAIN -2.18 dB
REM REPLAYGAIN_TRACK_PEAK 0.773499
INDEX 00 02:54:50
FILE "09 - Thanks for the Boogie Ride.flac" WAVE
INDEX 01 00:00:00
TRACK 10 AUDIO
TITLE "Pass the Bounce"
REM REPLAYGAIN_TRACK_GAIN -4.15 dB
REM REPLAYGAIN_TRACK_PEAK 0.627747
INDEX 00 03:09:62
FILE "10 - Pass the Bounce.flac" WAVE
INDEX 01 00:00:00
TRACK 11 AUDIO
TITLE "That's What You Think"
REM REPLAYGAIN_TRACK_GAIN -3.90 dB
REM REPLAYGAIN_TRACK_PEAK 0.739990
INDEX 00 02:56:13
FILE "11 - That's What You Think.flac" WAVE
INDEX 01 00:00:00
TRACK 12 AUDIO
TITLE "Deliver Me to Tennessee"
REM REPLAYGAIN_TRACK_GAIN -3.92 dB
REM REPLAYGAIN_TRACK_PEAK 0.745300
INDEX 00 03:16:37
FILE "12 - Deliver Me to Tennessee.flac" WAVE
INDEX 01 00:00:00
TRACK 13 AUDIO
TITLE "Massachusetts"
REM REPLAYGAIN_TRACK_GAIN -4.96 dB
REM REPLAYGAIN_TRACK_PEAK 0.737915
INDEX 00 03:08:63
FILE "13 - Massachusetts.flac" WAVE
INDEX 01 00:00:00
TRACK 14 AUDIO
TITLE "Opus #1"
REM REPLAYGAIN_TRACK_GAIN -4.91 dB
REM REPLAYGAIN_TRACK_PEAK 0.722839
INDEX 00 03:16:37
FILE "14 - Opus #1.flac" WAVE
INDEX 01 00:00:00
TRACK 15 AUDIO
TITLE "Boogie Blues"
REM REPLAYGAIN_TRACK_GAIN -3.87 dB
REM REPLAYGAIN_TRACK_PEAK 0.710144
INDEX 00 02:57:38
FILE "15 - Boogie Blues.flac" WAVE
INDEX 01 00:00:00
TRACK 16 AUDIO
TITLE "Hop, Skip and Jump"
REM REPLAYGAIN_TRACK_GAIN -2.32 dB
REM REPLAYGAIN_TRACK_PEAK 0.774414
INDEX 00 03:24:62
FILE "16 - Hop, Skip and Jump.flac" WAVE
INDEX 01 00:00:00
 
Об альбоме (сборнике)
A Japan-only album of classic Gene Krupa with Anita O'Day and Roy Eldridge sides recorded in the early 1940s, at the beginning of O'Day's career.
00:45
669
Нет комментариев. Ваш будет первым!