Поиск

(Vocal Jazz) [CD] Lorez Alexandria - More of the Great Lorez Alexandria - 1964 (2007 Japan Edition), FLAC (tracks+.cue), lossless

(Vocal Jazz) [CD] Lorez Alexandria - More of the Great Lorez Alexandria - 1964 (2007 Japan Edition), FLAC (tracks+.cue), lossless
Lorez Alexandria - More of the Great Lorez Alexandria
Жанр: Vocal Jazz
Носитель: CD
Страна-производитель диска (релиза): Япония
Год издания: 2007
Издатель (лейбл): Impulse!/Universal Classics & Jazz
Номер по каталогу: UCCI-9063
Страна исполнителя (группы): США
Аудиокодек: FLAC (*.flac)
Тип рипа: tracks+.cue
Битрейт аудио: lossless
Продолжительность: 33:08
Источник (релизер): Chander (what)
Наличие сканов в содержимом раздачи: сетевые
Треклист:
01. But Beautiful (Burke-Van Heusen) - 4:19
02. Little Boat (O Barquinho) (Boscoli-Menescal-Kaye) - 2:17
03. Dancing on the Ceiling (Rodgers-Hart) - 1:32
04. It Might as Well Be Spring (Rodgers-Hammerstein) - 6:58
05. Once (It S'Aim Aient) (Magenta-Marney-Gimbel) - 2:21
06. The Wildest Gal in Town (Yellen-Fain) - 2:54
07. Angel Eyes (Dennis-Brent) - 4:53
08. This Could Be the Start of Something Big (Allen) - 2:20
09. No More (Russell-Camarata) - 3:09
10. That Far Away Look (Fain-Bergman-Bergman) - 2:25
Состав:
Lorez Alexandria - vocals
Paul Horn - alto saxophone
Wynton Kelly - piano
Ray Crawford - guitar (#8)
Al McKibbon - bass
Jimmy Cobb - drums (#8)
Orchestra lead by Toots Camarata
Recorded in New York in 1964.
 
Лог создания рипа
Exact Audio Copy V1.0 beta 1 from 15. November 2010
EAC extraction logfile from 10. March 2011, 14:07
Lorez Alexandria / More of The Great
Used drive : PLEXTOR DVDR PX-750A Adapter: 7 ID: 0
Read mode : Secure
Utilize accurate stream : Yes
Defeat audio cache : Yes
Make use of C2 pointers : No
Read offset correction : 102
Overread into Lead-In and Lead-Out : No
Fill up missing offset samples with silence : Yes
Delete leading and trailing silent blocks : No
Null samples used in CRC calculations : Yes
Used interface : Native Win32 interface for Win NT & 2000
Gap handling : Appended to previous track
Used output format : User Defined Encoder
Selected bitrate : 320 kBit/s
Quality : High
Add ID3 tag : No
Command line compressor : C:\Program Files\Exact Audio Copy\flac.exe
Additional command line options : -V -8 -T "artist=%a" -T "title=%t" -T "album=%g" -T "date=%y" -T "tracknumber=%n" -T "genre=%m" %s
TOC of the extracted CD
Track | Start | Length | Start sector | End sector
---------------------------------------------------------
1 | 0:00.00 | 4:18.47 | 0 | 19396
2 | 4:18.47 | 2:17.33 | 19397 | 29704
3 | 6:36.05 | 1:32.20 | 29705 | 36624
4 | 8:08.25 | 6:58.20 | 36625 | 67994
5 | 15:06.45 | 2:20.40 | 67995 | 78534
6 | 17:27.10 | 2:54.27 | 78535 | 91611
7 | 20:21.37 | 4:53.28 | 91612 | 113614
8 | 25:14.65 | 2:20.25 | 113615 | 124139
9 | 27:35.15 | 3:09.07 | 124140 | 138321
10 | 30:44.22 | 2:25.30 | 138322 | 149226
Track 1
Filename C:\Torrent\FLAC\Lorez Alexandria - More of The Great (1964) [FLAC]\01 - But Beautifulf.wav
Pre-gap length 0:00:02.00
Peak level 89.5 %
Extraction speed 1.4 X
Track quality 100.0 %
Test CRC 8A9BCC85
Copy CRC 8A9BCC85
Track not present in AccurateRip database
Copy OK
Track 2
Filename C:\Torrent\FLAC\Lorez Alexandria - More of The Great (1964) [FLAC]\02 - Little Boat (O Barquinho).wav
Pre-gap length 0:00:03.14
Peak level 99.9 %
Extraction speed 1.4 X
Track quality 100.0 %
Test CRC B001B00D
Copy CRC B001B00D
Track not present in AccurateRip database
Copy OK
Track 3
Filename C:\Torrent\FLAC\Lorez Alexandria - More of The Great (1964) [FLAC]\03 - Dancing On The Ceiling.wav
Pre-gap length 0:00:04.12
Peak level 99.9 %
Extraction speed 1.2 X
Track quality 100.0 %
Test CRC 43861C6D
Copy CRC 43861C6D
Track not present in AccurateRip database
Copy OK
Track 4
Filename C:\Torrent\FLAC\Lorez Alexandria - More of The Great (1964) [FLAC]\04 - It Might As Well Be Spring.wav
Pre-gap length 0:00:03.22
Peak level 99.9 %
Extraction speed 1.9 X
Track quality 100.0 %
Test CRC D5126196
Copy CRC D5126196
Track not present in AccurateRip database
Copy OK
Track 5
Filename C:\Torrent\FLAC\Lorez Alexandria - More of The Great (1964) [FLAC]\05 - Once (It S'Aim Aient).wav
Pre-gap length 0:00:03.18
Peak level 96.9 %
Extraction speed 1.6 X
Track quality 100.0 %
Test CRC 1D7AF1D7
Copy CRC 1D7AF1D7
Track not present in AccurateRip database
Copy OK
Track 6
Filename C:\Torrent\FLAC\Lorez Alexandria - More of The Great (1964) [FLAC]\06 - The Wildest Gal In Town.wav
Pre-gap length 0:00:03.45
Peak level 99.9 %
Extraction speed 1.8 X
Track quality 100.0 %
Test CRC 8BE7149D
Copy CRC 8BE7149D
Track not present in AccurateRip database
Copy OK
Track 7
Filename C:\Torrent\FLAC\Lorez Alexandria - More of The Great (1964) [FLAC]\07 - Angel Eyes.wav
Pre-gap length 0:00:03.81
Peak level 99.9 %
Extraction speed 2.0 X
Track quality 100.0 %
Test CRC F2D5616D
Copy CRC F2D5616D
Track not present in AccurateRip database
Copy OK
Track 8
Filename C:\Torrent\FLAC\Lorez Alexandria - More of The Great (1964) [FLAC]\08 - This Could Be The Start Of Something Big.wav
Pre-gap length 0:00:02.58
Peak level 99.9 %
Extraction speed 1.7 X
Track quality 100.0 %
Test CRC E20A0075
Copy CRC E20A0075
Track not present in AccurateRip database
Copy OK
Track 9
Filename C:\Torrent\FLAC\Lorez Alexandria - More of The Great (1964) [FLAC]\09 - No More.wav
Pre-gap length 0:00:03.76
Peak level 99.8 %
Extraction speed 1.9 X
Track quality 100.0 %
Test CRC A8AEB55A
Copy CRC A8AEB55A
Track not present in AccurateRip database
Copy OK
Track 10
Filename C:\Torrent\FLAC\Lorez Alexandria - More of The Great (1964) [FLAC]\10 - That Far Away Look.wav
Pre-gap length 0:00:03.25
Peak level 99.7 %
Extraction speed 1.8 X
Track quality 100.0 %
Test CRC 846E1DA0
Copy CRC 846E1DA0
Track not present in AccurateRip database
Copy OK
None of the tracks are present in the AccurateRip database
No errors occurred
End of status report
==== Log checksum CFFAA89988CD97766DD08EDA31E1CE9F548D3236F094510936E62C69534F1813 ====
 
Содержание индексной карты (.CUE)
REM GENRE Jazz
REM DATE 1964
REM DISCID 8507C50A
REM COMMENT "ExactAudioCopy v1.0b1"
PERFORMER "Lorez Alexandria"
TITLE "More of the Great Lorez Alexandria"
FILE "01 - But Beautiful.wav" WAVE
TRACK 01 AUDIO
TITLE "But Beautiful"
PERFORMER "Lorez Alexandria"
INDEX 01 00:00:00
TRACK 02 AUDIO
TITLE "Little Boat (O Barquinho)"
PERFORMER "Lorez Alexandria"
INDEX 00 04:15:36
FILE "02 - Little Boat (O Barquinho).wav" WAVE
INDEX 01 00:00:00
TRACK 03 AUDIO
TITLE "Dancing on the Ceiling"
PERFORMER "Lorez Alexandria"
INDEX 00 02:13:24
FILE "03 - Dancing on the Ceiling.wav" WAVE
INDEX 01 00:00:00
TRACK 04 AUDIO
TITLE "It Might as Well Be Spring"
PERFORMER "Lorez Alexandria"
INDEX 00 01:29:03
FILE "04 - It Might as Well Be Spring.wav" WAVE
INDEX 01 00:00:00
TRACK 05 AUDIO
TITLE "Once (It S'Aim Aient)"
PERFORMER "Lorez Alexandria"
INDEX 00 06:55:06
FILE "05 - Once (It S'Aim Aient).wav" WAVE
INDEX 01 00:00:00
TRACK 06 AUDIO
TITLE "The Wildest Gal in Town"
PERFORMER "Lorez Alexandria"
INDEX 00 02:17:06
FILE "06 - The Wildest Gal in Town.wav" WAVE
INDEX 01 00:00:00
TRACK 07 AUDIO
TITLE "Angel Eyes"
PERFORMER "Lorez Alexandria"
INDEX 00 02:50:41
FILE "07 - Angel Eyes.wav" WAVE
INDEX 01 00:00:00
TRACK 08 AUDIO
TITLE "This Could Be the Start of Something Big"
PERFORMER "Lorez Alexandria"
INDEX 00 04:50:59
FILE "08 - This Could Be the Start of Something Big.wav" WAVE
INDEX 01 00:00:00
TRACK 09 AUDIO
TITLE "No More"
PERFORMER "Lorez Alexandria"
INDEX 00 02:16:43
FILE "09 - No More.wav" WAVE
INDEX 01 00:00:00
TRACK 10 AUDIO
TITLE "That Far Away Look"
PERFORMER "Lorez Alexandria"
INDEX 00 03:05:63
FILE "10 - That Far Away Look.wav" WAVE
INDEX 01 00:00:00
 
Отчет CUETools
[CUETools log; Date: 08.02.2016 18:59:47; Version: 2.1.5]
[CTDB TOCID: pXED9tOin70NfcL.rzmTYKYt8Ak-] found.
Track | CTDB Status
1 | (1/1) Accurately ripped
2 | (1/1) Accurately ripped
3 | (1/1) Accurately ripped
4 | (1/1) Accurately ripped
5 | (1/1) Accurately ripped
6 | (1/1) Accurately ripped
7 | (1/1) Accurately ripped
8 | (1/1) Accurately ripped
9 | (1/1) Accurately ripped
10 | (1/1) Accurately ripped
[AccurateRip ID: 000cf515-00676bb0-8507c50a] found.
Track [ CRC | V2 ] Status
01 [743df72b|4fdf0166] (0+3/3) Accurately ripped
02 [31fea19d|33b3c19f] (0+3/3) Accurately ripped
03 [a5e4c612|5e9d04de] (0+3/3) Accurately ripped
04 [aa796784|8a0c7f54] (0+3/3) Accurately ripped
05 [8b801744|721283ec] (0+3/3) Accurately ripped
06 [87433c70|325c48e8] (0+3/3) Accurately ripped
07 [4b7e7159|5defa73b] (0+3/3) Accurately ripped
08 [3d9ed65d|75be5347] (0+3/3) Accurately ripped
09 [80ab03b7|eaa21cc7] (0+3/3) Accurately ripped
10 [63b22d43|5079446d] (0+3/3) Accurately ripped
Track Peak [ CRC32 ] [W/O NULL] [ LOG ]
-- 99,9 [BF2783B8] [FAA70382]
01 89,5 [8A9BCC85] [F387085D] CRC32
02 99,9 [B001B00D] [36A048E5] CRC32
03 99,9 [43861C6D] [B9064EEA] CRC32
04 99,9 [D5126196] [6C9ECA36] CRC32
05 96,9 [1D7AF1D7] [B7F789E1] CRC32
06 99,9 [8BE7149D] [21822A79] CRC32
07 99,9 [F2D5616D] [EC4EEA93] CRC32
08 99,9 [E20A0075] [D1DE0B18] CRC32
09 99,8 [A8AEB55A] [62298A21] CRC32
10 99,7 [846E1DA0] [A28C041D] CRC32
Скачивание доступно после регистрации!!
Приватный:
Нет (DHT включён)
Размер:
188.46 Мб (197,611,348 байт) » файлов: 25
Участники:
0 раздают, 0 качают (0 участников всего)
Внешние участники:
2 раздают, 1 качают (3 участников всего) [ Обновить ]
00:52
619
Нет комментариев. Ваш будет первым!