Поиск

(Vocal Jazz) [CD] Lorez Alexandria - The 60's Pzazz Sessions: Didn't We (1968)/In a Different Bag (1969) (2in1) - 2001, FLAC (tracks+.cue), lossless

(Vocal Jazz) [CD] Lorez Alexandria - The 60's Pzazz Sessions: Didn't We (1968)/In a Different Bag (1969) (2in1) - 2001, FLAC (tracks+.cue), lossless
Lorez Alexandria - The 60's Pzazz Sessions: Didn't We (1968)/In a Different Bag (1969)
Жанр: Vocal Jazz
Носитель: CD
Страна-производитель диска (релиза): Великобритания
Год издания: 2001
Издатель (лейбл): Connoisseur Collection
Номер по каталогу: VSOP CD350
Страна исполнителя (группы): США
Аудиокодек: FLAC (*.flac)
Тип рипа: tracks+.cue
Битрейт аудио: lossless
Продолжительность: 74:01
Источник (релизер): TCL (what)
Наличие сканов в содержимом раздачи: да
Треклист:
Didn't We (1968)
01. Didn't We (Webb) - 4:15
02. Play Me the Blues (Edwards) - 2:53
03. Comet in the Sky (Mercer-Bright) - 4:48
04. Endless (Brown) - 3:38
05. I Didn't See You (Bright) - 3:16
06. Psychedelic Bag (Bright) - 2:46
07. I'm Wishin' (Brown) - 3:00
08. The One Who Loves You (Brown) - 2:13
09. Nonchalantly (Edwards) - 2:54
10. Talk About Cozy (Bright) - 2:19
In a Different Bag (1969)
11. Hey Jude (Lennon-McCartney) - 5:19
12. Confessin' the Blues (McShann-Brown) - 3:25
13. Deacon Jones' Daughter (Kober) - 2:01
14. I Don't Want to Hear It Anymore (Unknown) - 3:22
15. I'll Never Be Free (Benjamin-Weiss) - 3:23
16. Just One More Chance (Coslow-Johnston) - 3:01
17. Trust in Me (Ager-Schwartz-Wever) - 3:41
18. Vibrations (Hillery) - 2:35
19. I've Got a Right to Cry (Liggins) - 3:00
20. My Way (Revaux-Francois-Thibaut-Trans-Anka) - 5:07
Bonus tracks
21. Santa Is Here (Unknown) - 3:18
22. Help Me (McGlohan) - 3:47
 
Лог создания рипа
X Lossless Decoder version 20141129 (148.1)
XLD extraction logfile from 2014-12-28 17:19:08 +0200
Lorez Alexandria / The 60's Pzazz Sessions
Used drive : MATSHITA DVD-R UJ-8A8 (revision HB14)
Media type : Pressed CD
Ripper mode : XLD Secure Ripper
Disable audio cache : OK for the drive with a cache less than 1375KiB
Make use of C2 pointers : NO
Read offset correction : 102
Max retry count : 20
Gap status : Analyzed, Appended (except HTOA)
TOC of the extracted CD
Track | Start | Length | Start sector | End sector
---------------------------------------------------------
1 | 00:00:00 | 04:14:57 | 0 | 19106
2 | 04:14:57 | 02:52:57 | 19107 | 32063
3 | 07:07:39 | 04:47:70 | 32064 | 53658
4 | 11:55:34 | 03:37:62 | 53659 | 69995
5 | 15:33:21 | 03:16:37 | 69996 | 84732
6 | 18:49:58 | 02:46:12 | 84733 | 97194
7 | 21:35:70 | 02:59:56 | 97195 | 110675
8 | 24:35:51 | 02:12:51 | 110676 | 120626
9 | 26:48:27 | 02:54:02 | 120627 | 133678
10 | 29:42:29 | 02:19:14 | 133679 | 144117
11 | 32:01:43 | 05:18:47 | 144118 | 168014
12 | 37:20:15 | 03:25:25 | 168015 | 183414
13 | 40:45:40 | 02:01:04 | 183415 | 192493
14 | 42:46:44 | 03:22:10 | 192494 | 207653
15 | 46:08:54 | 03:22:65 | 207654 | 222868
16 | 49:31:44 | 03:00:61 | 222869 | 236429
17 | 52:32:30 | 03:40:49 | 236430 | 252978
18 | 56:13:04 | 02:35:13 | 252979 | 264616
19 | 58:48:17 | 03:00:10 | 264617 | 278126
20 | 61:48:27 | 05:06:41 | 278127 | 301117
21 | 66:54:68 | 03:18:16 | 301118 | 315983
22 | 70:13:09 | 03:47:25 | 315984 | 333033
AccurateRip Summary (DiscID: 003a53fe-039d8681-37115816)
Track 01 : OK (v1, confidence 1/1)
Track 02 : OK (v1, confidence 1/1)
Track 03 : OK (v1, confidence 1/1)
Track 04 : OK (v1, confidence 1/1)
Track 05 : OK (v1, confidence 1/1)
Track 06 : OK (v1, confidence 1/1)
Track 07 : OK (v1, confidence 1/1)
Track 08 : OK (v1, confidence 1/1)
Track 09 : OK (v1, confidence 1/1)
Track 10 : OK (v1, confidence 1/1)
Track 11 : OK (v1, confidence 1/1)
Track 12 : OK (v1, confidence 1/1)
Track 13 : OK (v1, confidence 1/1)
Track 14 : OK (v1, confidence 1/1)
Track 15 : OK (v1, confidence 1/1)
Track 16 : OK (v1, confidence 1/1)
Track 17 : OK (v1, confidence 1/1)
Track 18 : OK (v1, confidence 1/1)
Track 19 : OK (v1, confidence 1/1)
Track 20 : OK (v1, confidence 1/1)
Track 21 : OK (v1, confidence 1/1)
Track 22 : OK (v1, confidence 1/1)
->All tracks accurately ripped.
All Tracks
Album gain : -4.28 dB
Peak : 0.989655
Statistics
Read error : 0
Jitter error (maybe fixed) : 0
Retry sector count : 0
Damaged sector count : 0
Track 01
Filename : /Users/administrator/Music/Lorez Alexandria/Lorez Alexandria - The 60's Pzazz Sessions (2001) [FLAC]/01 Didn't We.flac
Pre-gap length : 00:02:00
Track gain : -5.62 dB
Peak : 0.952576
CRC32 hash (test run) : 3BD5CF39
CRC32 hash : 3BD5CF39
CRC32 hash (skip zero) : 94E1351C
AccurateRip v1 signature : 9F0F80EC
AccurateRip v2 signature : 12BAF4C3
->Accurately ripped (v1, confidence 1/1)
Statistics
Read error : 0
Jitter error (maybe fixed) : 0
Retry sector count : 0
Damaged sector count : 0
Track 02
Filename : /Users/administrator/Music/Lorez Alexandria/Lorez Alexandria - The 60's Pzazz Sessions (2001) [FLAC]/02 Play Me The Blues.flac
Pre-gap length : 00:00:46
Track gain : -5.57 dB
Peak : 0.881317
CRC32 hash (test run) : 5B7AB610
CRC32 hash : 5B7AB610
CRC32 hash (skip zero) : 25413A48
AccurateRip v1 signature : D81668CB
AccurateRip v2 signature : 71E39BF9
->Accurately ripped (v1, confidence 1/1)
Statistics
Read error : 0
Jitter error (maybe fixed) : 0
Retry sector count : 0
Damaged sector count : 0
Track 03
Filename : /Users/administrator/Music/Lorez Alexandria/Lorez Alexandria - The 60's Pzazz Sessions (2001) [FLAC]/03 Comet In The Sky.flac
Pre-gap length : 00:01:16
Track gain : -4.71 dB
Peak : 0.840027
CRC32 hash (test run) : A73212BB
CRC32 hash : A73212BB
CRC32 hash (skip zero) : 9AA72862
AccurateRip v1 signature : 736105F2
AccurateRip v2 signature : B37A02B0
->Accurately ripped (v1, confidence 1/1)
Statistics
Read error : 0
Jitter error (maybe fixed) : 0
Retry sector count : 0
Damaged sector count : 0
Track 04
Filename : /Users/administrator/Music/Lorez Alexandria/Lorez Alexandria - The 60's Pzazz Sessions (2001) [FLAC]/04 Endless.flac
Pre-gap length : 00:01:03
Track gain : -3.50 dB
Peak : 0.861877
CRC32 hash (test run) : 5E4C777D
CRC32 hash : 5E4C777D
CRC32 hash (skip zero) : D8C994C8
AccurateRip v1 signature : BA7F237B
AccurateRip v2 signature : 727DB68E
->Accurately ripped (v1, confidence 1/1)
Statistics
Read error : 0
Jitter error (maybe fixed) : 0
Retry sector count : 0
Damaged sector count : 0
Track 05
Filename : /Users/administrator/Music/Lorez Alexandria/Lorez Alexandria - The 60's Pzazz Sessions (2001) [FLAC]/05 I Didn't See You.flac
Pre-gap length : 00:00:68
Track gain : -3.27 dB
Peak : 0.814056
CRC32 hash (test run) : 5E9EE544
CRC32 hash : 5E9EE544
CRC32 hash (skip zero) : 3397DCB5
AccurateRip v1 signature : 32F81DC0
AccurateRip v2 signature : CA61F5E3
->Accurately ripped (v1, confidence 1/1)
Statistics
Read error : 0
Jitter error (maybe fixed) : 0
Retry sector count : 0
Damaged sector count : 0
Track 06
Filename : /Users/administrator/Music/Lorez Alexandria/Lorez Alexandria - The 60's Pzazz Sessions (2001) [FLAC]/06 Psychedelic Bag.flac
Pre-gap length : 00:00:47
Track gain : -4.21 dB
Peak : 0.970184
CRC32 hash (test run) : F268A659
CRC32 hash : F268A659
CRC32 hash (skip zero) : 8B5A7585
AccurateRip v1 signature : FB3F9052
AccurateRip v2 signature : 8491A0F3
->Accurately ripped (v1, confidence 1/1)
Statistics
Read error : 0
Jitter error (maybe fixed) : 0
Retry sector count : 0
Damaged sector count : 0
Track 07
Filename : /Users/administrator/Music/Lorez Alexandria/Lorez Alexandria - The 60's Pzazz Sessions (2001) [FLAC]/07 I'm Wishin'.flac
Pre-gap length : 00:00:07
Track gain : -3.55 dB
Peak : 0.896179
CRC32 hash (test run) : CC34E84E
CRC32 hash : CC34E84E
CRC32 hash (skip zero) : 89CB7E66
AccurateRip v1 signature : 2379ECD0
AccurateRip v2 signature : 52FB7367
->Accurately ripped (v1, confidence 1/1)
Statistics
Read error : 0
Jitter error (maybe fixed) : 0
Retry sector count : 0
Damaged sector count : 0
Track 08
Filename : /Users/administrator/Music/Lorez Alexandria/Lorez Alexandria - The 60's Pzazz Sessions (2001) [FLAC]/08 The One Who Loves You.flac
Track gain : -5.14 dB
Peak : 0.822266
CRC32 hash (test run) : 12D2F9F8
CRC32 hash : 12D2F9F8
CRC32 hash (skip zero) : EFC5B33D
AccurateRip v1 signature : A95D14AD
AccurateRip v2 signature : B37142D5
->Accurately ripped (v1, confidence 1/1)
Statistics
Read error : 0
Jitter error (maybe fixed) : 0
Retry sector count : 0
Damaged sector count : 0
Track 09
Filename : /Users/administrator/Music/Lorez Alexandria/Lorez Alexandria - The 60's Pzazz Sessions (2001) [FLAC]/09 Nonchalantly.flac
Pre-gap length : 00:00:03
Track gain : -5.00 dB
Peak : 0.876648
CRC32 hash (test run) : 718D2A83
CRC32 hash : 718D2A83
CRC32 hash (skip zero) : F6F2855B
AccurateRip v1 signature : D3954B40
AccurateRip v2 signature : 654612BB
->Accurately ripped (v1, confidence 1/1)
Statistics
Read error : 0
Jitter error (maybe fixed) : 0
Retry sector count : 0
Damaged sector count : 0
Track 10
Filename : /Users/administrator/Music/Lorez Alexandria/Lorez Alexandria - The 60's Pzazz Sessions (2001) [FLAC]/10 Talk About Cozy.flac
Track gain : -4.27 dB
Peak : 0.884155
CRC32 hash (test run) : 527E81AC
CRC32 hash : 527E81AC
CRC32 hash (skip zero) : 7D6CAF6F
AccurateRip v1 signature : F991822C
AccurateRip v2 signature : 6F2F32C0
->Accurately ripped (v1, confidence 1/1)
Statistics
Read error : 0
Jitter error (maybe fixed) : 0
Retry sector count : 0
Damaged sector count : 0
Track 11
Filename : /Users/administrator/Music/Lorez Alexandria/Lorez Alexandria - The 60's Pzazz Sessions (2001) [FLAC]/11 Hey Jude.flac
Pre-gap length : 00:02:42
Track gain : -4.28 dB
Peak : 0.989655
CRC32 hash (test run) : 5866BB8C
CRC32 hash : 5866BB8C
CRC32 hash (skip zero) : 425EFC04
AccurateRip v1 signature : 8C5C6B07
AccurateRip v2 signature : E1D29CD5
->Accurately ripped (v1, confidence 1/1)
Statistics
Read error : 0
Jitter error (maybe fixed) : 0
Retry sector count : 0
Damaged sector count : 0
Track 12
Filename : /Users/administrator/Music/Lorez Alexandria/Lorez Alexandria - The 60's Pzazz Sessions (2001) [FLAC]/12 Confessin' The Blues.flac
Pre-gap length : 00:00:69
Track gain : -2.45 dB
Peak : 0.806915
CRC32 hash (test run) : 9CC4C103
CRC32 hash : 9CC4C103
CRC32 hash (skip zero) : C2EDC816
AccurateRip v1 signature : F2520F24
AccurateRip v2 signature : E3BE6539
->Accurately ripped (v1, confidence 1/1)
Statistics
Read error : 0
Jitter error (maybe fixed) : 0
Retry sector count : 0
Damaged sector count : 0
Track 13
Filename : /Users/administrator/Music/Lorez Alexandria/Lorez Alexandria - The 60's Pzazz Sessions (2001) [FLAC]/13 Deacon Jones' Daughter.flac
Track gain : -4.25 dB
Peak : 0.826904
CRC32 hash (test run) : 97ABCE32
CRC32 hash : 97ABCE32
CRC32 hash (skip zero) : 46064418
AccurateRip v1 signature : 349CC36F
AccurateRip v2 signature : ECB9BB65
->Accurately ripped (v1, confidence 1/1)
Statistics
Read error : 0
Jitter error (maybe fixed) : 0
Retry sector count : 0
Damaged sector count : 0
Track 14
Filename : /Users/administrator/Music/Lorez Alexandria/Lorez Alexandria - The 60's Pzazz Sessions (2001) [FLAC]/14 I Don't Want To Hear It Anymore.flac
Track gain : -3.19 dB
Peak : 0.957977
CRC32 hash (test run) : B78D62FE
CRC32 hash : B78D62FE
CRC32 hash (skip zero) : E355E770
AccurateRip v1 signature : 1F8A1567
AccurateRip v2 signature : 391E9C30
->Accurately ripped (v1, confidence 1/1)
Statistics
Read error : 0
Jitter error (maybe fixed) : 0
Retry sector count : 0
Damaged sector count : 0
Track 15
Filename : /Users/administrator/Music/Lorez Alexandria/Lorez Alexandria - The 60's Pzazz Sessions (2001) [FLAC]/15 I'll Never Be Free.flac
Pre-gap length : 00:01:34
Track gain : -4.25 dB
Peak : 0.889923
CRC32 hash (test run) : 3B8B4D57
CRC32 hash : 3B8B4D57
CRC32 hash (skip zero) : 9DFE0E25
AccurateRip v1 signature : 57F1FF5D
AccurateRip v2 signature : AAD7D8E3
->Accurately ripped (v1, confidence 1/1)
Statistics
Read error : 0
Jitter error (maybe fixed) : 0
Retry sector count : 0
Damaged sector count : 0
Track 16
Filename : /Users/administrator/Music/Lorez Alexandria/Lorez Alexandria - The 60's Pzazz Sessions (2001) [FLAC]/16 Just One More Chance.flac
Pre-gap length : 00:01:35
Track gain : -2.99 dB
Peak : 0.912537
CRC32 hash (test run) : 93DE3330
CRC32 hash : 93DE3330
CRC32 hash (skip zero) : A83F97FB
AccurateRip v1 signature : A8051045
AccurateRip v2 signature : BF352C43
->Accurately ripped (v1, confidence 1/1)
Statistics
Read error : 0
Jitter error (maybe fixed) : 0
Retry sector count : 0
Damaged sector count : 0
Track 17
Filename : /Users/administrator/Music/Lorez Alexandria/Lorez Alexandria - The 60's Pzazz Sessions (2001) [FLAC]/17 Trust In Me.flac
Pre-gap length : 00:00:73
Track gain : -3.32 dB
Peak : 0.933807
CRC32 hash (test run) : 57E9914A
CRC32 hash : 57E9914A
CRC32 hash (skip zero) : 30457B6D
AccurateRip v1 signature : 4B558CE5
AccurateRip v2 signature : F3A1B548
->Accurately ripped (v1, confidence 1/1)
Statistics
Read error : 0
Jitter error (maybe fixed) : 0
Retry sector count : 0
Damaged sector count : 0
Track 18
Filename : /Users/administrator/Music/Lorez Alexandria/Lorez Alexandria - The 60's Pzazz Sessions (2001) [FLAC]/18 Vibrations.flac
Pre-gap length : 00:00:36
Track gain : -2.99 dB
Peak : 0.895569
CRC32 hash (test run) : 85FCD423
CRC32 hash : 85FCD423
CRC32 hash (skip zero) : 23F033A0
AccurateRip v1 signature : 44044598
AccurateRip v2 signature : 3849B280
->Accurately ripped (v1, confidence 1/1)
Statistics
Read error : 0
Jitter error (maybe fixed) : 0
Retry sector count : 0
Damaged sector count : 0
Track 19
Filename : /Users/administrator/Music/Lorez Alexandria/Lorez Alexandria - The 60's Pzazz Sessions (2001) [FLAC]/19 I've Got A Right To Cry.flac
Track gain : -2.37 dB
Peak : 0.921936
CRC32 hash (test run) : 08FB3E2C
CRC32 hash : 08FB3E2C
CRC32 hash (skip zero) : F8C4AB8E
AccurateRip v1 signature : 38DCA6BE
AccurateRip v2 signature : 3C139B35
->Accurately ripped (v1, confidence 1/1)
Statistics
Read error : 0
Jitter error (maybe fixed) : 0
Retry sector count : 0
Damaged sector count : 0
Track 20
Filename : /Users/administrator/Music/Lorez Alexandria/Lorez Alexandria - The 60's Pzazz Sessions (2001) [FLAC]/20 My Way.flac
Pre-gap length : 00:01:33
Track gain : -3.17 dB
Peak : 0.912384
CRC32 hash (test run) : 7A73099C
CRC32 hash : 7A73099C
CRC32 hash (skip zero) : CB8E3AA4
AccurateRip v1 signature : 7A4BFCFB
AccurateRip v2 signature : 7D883401
->Accurately ripped (v1, confidence 1/1)
Statistics
Read error : 0
Jitter error (maybe fixed) : 0
Retry sector count : 0
Damaged sector count : 0
Track 21
Filename : /Users/administrator/Music/Lorez Alexandria/Lorez Alexandria - The 60's Pzazz Sessions (2001) [FLAC]/21 Santa Is Here.flac
Pre-gap length : 00:02:15
Track gain : -4.91 dB
Peak : 0.899780
CRC32 hash (test run) : 9921994D
CRC32 hash : 9921994D
CRC32 hash (skip zero) : 4DB44B6A
AccurateRip v1 signature : 03FD6766
AccurateRip v2 signature : E5B55C2D
->Accurately ripped (v1, confidence 1/1)
Statistics
Read error : 0
Jitter error (maybe fixed) : 0
Retry sector count : 0
Damaged sector count : 0
Track 22
Filename : /Users/administrator/Music/Lorez Alexandria/Lorez Alexandria - The 60's Pzazz Sessions (2001) [FLAC]/22 Help Me.flac
Pre-gap length : 00:01:36
Track gain : -2.93 dB
Peak : 0.885071
CRC32 hash (test run) : 277CDDD6
CRC32 hash : 277CDDD6
CRC32 hash (skip zero) : 6EAFE99F
AccurateRip v1 signature : 156AE2B3
AccurateRip v2 signature : C700120D
->Accurately ripped (v1, confidence 1/1)
Statistics
Read error : 0
Jitter error (maybe fixed) : 0
Retry sector count : 0
Damaged sector count : 0
No errors occurred
End of status report
-----BEGIN XLD SIGNATURE-----
ZmXAe7j9DLR2qv2C8qzoAa.10VAtN4GMYuVZ6wjIY1idwVZY896G8hv_yBGlek6TRa5EvEG360wO4je8t0TraFtB1TrezRsrIjp3OU8
-----END XLD SIGNATURE-----
 
Содержание индексной карты (.CUE)
TITLE "The 60's Pzazz Sessions"
PERFORMER "Lorez Alexandria"
REM GENRE "Jazz"
REM DATE "2001"
REM DISCID 37115816
REM REPLAYGAIN_ALBUM_GAIN -4.28 dB
REM REPLAYGAIN_ALBUM_PEAK 0.989655
FILE "01 - Didn't We.flac" WAVE
TRACK 01 AUDIO
TITLE "Didn't We"
REM REPLAYGAIN_TRACK_GAIN -5.62 dB
REM REPLAYGAIN_TRACK_PEAK 0.952576
INDEX 01 00:00:00
TRACK 02 AUDIO
TITLE "Play Me the Blues"
REM REPLAYGAIN_TRACK_GAIN -5.57 dB
REM REPLAYGAIN_TRACK_PEAK 0.881317
INDEX 00 04:14:11
FILE "02 - Play Me the Blues.flac" WAVE
INDEX 01 00:00:00
TRACK 03 AUDIO
TITLE "Comet in the Sky"
REM REPLAYGAIN_TRACK_GAIN -4.71 dB
REM REPLAYGAIN_TRACK_PEAK 0.840027
INDEX 00 02:51:41
FILE "03 - Comet in the Sky.flac" WAVE
INDEX 01 00:00:00
TRACK 04 AUDIO
TITLE "Endless"
REM REPLAYGAIN_TRACK_GAIN -3.50 dB
REM REPLAYGAIN_TRACK_PEAK 0.861877
INDEX 00 04:46:67
FILE "04 - Endless.flac" WAVE
INDEX 01 00:00:00
TRACK 05 AUDIO
TITLE "I Didn't See You"
REM REPLAYGAIN_TRACK_GAIN -3.27 dB
REM REPLAYGAIN_TRACK_PEAK 0.814056
INDEX 00 03:36:69
FILE "05 - I Didn't See You.flac" WAVE
INDEX 01 00:00:00
TRACK 06 AUDIO
TITLE "Psychedelic Bag"
REM REPLAYGAIN_TRACK_GAIN -4.21 dB
REM REPLAYGAIN_TRACK_PEAK 0.970184
INDEX 00 03:15:65
FILE "06 - Psychedelic Bag.flac" WAVE
INDEX 01 00:00:00
TRACK 07 AUDIO
TITLE "I'm Wishin'"
REM REPLAYGAIN_TRACK_GAIN -3.55 dB
REM REPLAYGAIN_TRACK_PEAK 0.896179
INDEX 00 02:46:05
FILE "07 - I'm Wishin'.flac" WAVE
INDEX 01 00:00:00
FILE "08 - The One Who Loves You.flac" WAVE
TRACK 08 AUDIO
TITLE "The One Who Loves You"
REM REPLAYGAIN_TRACK_GAIN -5.14 dB
REM REPLAYGAIN_TRACK_PEAK 0.822266
INDEX 01 00:00:00
TRACK 09 AUDIO
TITLE "Nonchalantly"
REM REPLAYGAIN_TRACK_GAIN -5.00 dB
REM REPLAYGAIN_TRACK_PEAK 0.876648
INDEX 00 02:12:48
FILE "09 - Nonchalantly.flac" WAVE
INDEX 01 00:00:00
FILE "10 - Talk About Cozy.flac" WAVE
TRACK 10 AUDIO
TITLE "Talk About Cozy"
REM REPLAYGAIN_TRACK_GAIN -4.27 dB
REM REPLAYGAIN_TRACK_PEAK 0.884155
INDEX 01 00:00:00
TRACK 11 AUDIO
TITLE "Hey Jude"
REM REPLAYGAIN_TRACK_GAIN -4.28 dB
REM REPLAYGAIN_TRACK_PEAK 0.989655
INDEX 00 02:16:47
FILE "11 - Hey Jude.flac" WAVE
INDEX 01 00:00:00
TRACK 12 AUDIO
TITLE "Confessin' the Blues"
REM REPLAYGAIN_TRACK_GAIN -2.45 dB
REM REPLAYGAIN_TRACK_PEAK 0.806915
INDEX 00 05:17:53
FILE "12 - Confessin' the Blues.flac" WAVE
INDEX 01 00:00:00
FILE "13 - Deacon Jones' Daughter.flac" WAVE
TRACK 13 AUDIO
TITLE "Deacon Jones' Daughter"
REM REPLAYGAIN_TRACK_GAIN -4.25 dB
REM REPLAYGAIN_TRACK_PEAK 0.826904
INDEX 01 00:00:00
FILE "14 - I Don't Want to Hear It Anymore.flac" WAVE
TRACK 14 AUDIO
TITLE "I Don't Want to Hear It Anymore"
REM REPLAYGAIN_TRACK_GAIN -3.19 dB
REM REPLAYGAIN_TRACK_PEAK 0.957977
INDEX 01 00:00:00
TRACK 15 AUDIO
TITLE "I'll Never Be Free"
REM REPLAYGAIN_TRACK_GAIN -4.25 dB
REM REPLAYGAIN_TRACK_PEAK 0.889923
INDEX 00 03:20:51
FILE "15 - I'll Never Be Free.flac" WAVE
INDEX 01 00:00:00
TRACK 16 AUDIO
TITLE "Just One More Chance"
REM REPLAYGAIN_TRACK_GAIN -2.99 dB
REM REPLAYGAIN_TRACK_PEAK 0.912537
INDEX 00 03:21:30
FILE "16 - Just One More Chance.flac" WAVE
INDEX 01 00:00:00
TRACK 17 AUDIO
TITLE "Trust in Me"
REM REPLAYGAIN_TRACK_GAIN -3.32 dB
REM REPLAYGAIN_TRACK_PEAK 0.933807
INDEX 00 02:59:63
FILE "17 - Trust in Me.flac" WAVE
INDEX 01 00:00:00
TRACK 18 AUDIO
TITLE "Vibrations"
REM REPLAYGAIN_TRACK_GAIN -2.99 dB
REM REPLAYGAIN_TRACK_PEAK 0.895569
INDEX 00 03:40:13
FILE "18 - Vibrations.flac" WAVE
INDEX 01 00:00:00
FILE "19 - I've Got a Right to Cry.flac" WAVE
TRACK 19 AUDIO
TITLE "I've Got a Right to Cry"
REM REPLAYGAIN_TRACK_GAIN -2.37 dB
REM REPLAYGAIN_TRACK_PEAK 0.921936
INDEX 01 00:00:00
TRACK 20 AUDIO
TITLE "My Way"
REM REPLAYGAIN_TRACK_GAIN -3.17 dB
REM REPLAYGAIN_TRACK_PEAK 0.912384
INDEX 00 02:58:52
FILE "20 - My Way.flac" WAVE
INDEX 01 00:00:00
TRACK 21 AUDIO
TITLE "Santa Is Here"
REM REPLAYGAIN_TRACK_GAIN -4.91 dB
REM REPLAYGAIN_TRACK_PEAK 0.899780
INDEX 00 05:04:26
FILE "21 - Santa Is Here.flac" WAVE
INDEX 01 00:00:00
TRACK 22 AUDIO
TITLE "Help Me"
REM REPLAYGAIN_TRACK_GAIN -2.93 dB
REM REPLAYGAIN_TRACK_PEAK 0.885071
INDEX 00 03:16:55
FILE "22 - Help Me.flac" WAVE
INDEX 01 00:00:00
 
AllMusic Review by Jason Ankeny
This two-fer combines a pair of rare late-'60s LPs recorded by Lorez Alexandria for producer Paul Gayten's Pzazz label after her brief but memorable tenure with Impluse! came to its close. The lovely Didn't We heralds a shift away from the traditional torch song jazz of her previous efforts in favor of a moody, evocative West Coast sensibility perfectly matched to her sumptuous vocals. While legendary tenorist Teddy Edwards is the marquee sideman here, Alexandria is also joined by pianist Ronnell Bright, who handles arranger duties and contributes several original compositions. Bright's pop leanings further underscore the session's shift away from jazz conventions, but it's an evolution that complements the natural soulfulness of Alexandria's voice. Given the deep gospel roots that inform her pure, powerful vocals, Lorez Alexandria was always as much a soul singer as a jazz singer anyway, regardless of where record stores racked her albums. In a Different Bag emphasizes and expands her pop possibilities, borrowing songs and sounds from the mainstream to create a richly nuanced session that's wonderfully accessible yet true to Alexandria's immense talents. Produced by Gayten and arranged by Jack Scott, the album boasts an organic intimacy that underscores its R&B-inspired approach: Alexandria excels on unlikely covers like the Beatles' "Hey Jude" and Randy Newman's "I Don't Want to Hear It Anymore," wrapping this daring and unconventional album on a perfectly poetic note with a reading of "My Way." The CD also includes two bonus cuts, "Santa Is Here" and "Help Me."
Скачивание доступно после регистрации!!
Приватный:
Нет (DHT включён)
Размер:
431.01 Мб (451,945,387 байт) » файлов: 35
Участники:
0 раздают, 0 качают (0 участников всего)
Внешние участники:
3 раздают, 1 качают (4 участников всего) [ Обновить ]
00:53
682
Нет комментариев. Ваш будет первым!