Поиск

(Vocal Jazz, Swing) Mose Allison - Ever Since The World Ended - 1987, FLAC (tracks+.cue) lossless

Треклист:
Mose Allison / Ever Since The World Ended
Жанр: Vocal Jazz, Swing
Страна-производитель диска: USA
Год издания диска: 1987
Издатель (лейбл): Blue Note: CDP 7 48015 2
Аудио кодек: FLAC (*.flac)
Тип рипа: tracks+.cue
Битрейт аудио: lossless
Продолжительность: 00:46:11
Источник (релизер): зарубежный трекер (yowlz)
Наличие сканов в содержимом раздачи: да
Треклист:
01. Ever Since The World Ended (4:52)
02. Top Forty (4:23)
03. Puttin' Up With Me (3:10)
04. Josephine (3:42)
05. I Looked In The Mirror (3:13)
06. Indian Summer (3:56)
07. Gettin' There (4:28)
08. Tai Chi Life (3:39)
09. What's Your Movie? (3:28)
10. Trouble In Mind (4:28)
11. I'm Alive (3:05)
12. Tumblin' Tumbleweeds (3:48)
 
Лог создания рипа
Exact Audio Copy V0.99 prebeta 5 from 4. May 2009
EAC extraction logfile from 26. September 2010, 23:29
Mose Allison / Ever Since The World Ended
Used drive  : TSSTcorpCDDVDW SH-S203N   Adapter: 0  ID: 2
Read mode               : Secure
Utilize accurate stream : Yes
Defeat audio cache      : Yes
Make use of C2 pointers : No
Read offset correction                      : 6
Overread into Lead-In and Lead-Out          : No
Fill up missing offset samples with silence : Yes
Delete leading and trailing silent blocks   : No
Null samples used in CRC calculations       : Yes
Used interface                              : Installed external ASPI interface
Gap handling                                : Appended to previous track
Used output format              : User Defined Encoder
Selected bitrate                : 768 kBit/s
Quality                         : High
Add ID3 tag                     : No
Command line compressor         : C:\Program Files\Exact Audio Copy\Flac\flac.exe
Additional command line options : -8 -V -T "ARTIST=%a" -T "TITLE=%t" -T "ALBUM=%g" -T "DATE=%y" -T "TRACKNUMBER=%n" -T "TOTALTRACKS=%x" -T "GENRE=%m" -T "ALBUMARTIST=%v" -T "ALBUM ARTIST=%v" -T "COMMENT=EAC V0.99 pb5, Secure Mode, Test & Copy, AccurateRip,
TOC of the extracted CD
     Track |   Start  |  Length  | Start sector | End sector
    ---------------------------------------------------------
        1  |  0:00.00 |  4:51.67 |         0    |    21891
        2  |  4:51.67 |  4:23.08 |     21892    |    41624
        3  |  9:15.00 |  3:10.27 |     41625    |    55901
        4  | 12:25.27 |  3:42.35 |     55902    |    72586
        5  | 16:07.62 |  3:13.15 |     72587    |    87076
        6  | 19:21.02 |  3:55.50 |     87077    |   104751
        7  | 23:16.52 |  4:27.53 |    104752    |   124829
        8  | 27:44.30 |  3:38.52 |    124830    |   141231
        9  | 31:23.07 |  3:28.15 |    141232    |   156846
       10  | 34:51.22 |  4:28.20 |    156847    |   176966
       11  | 39:19.42 |  3:04.63 |    176967    |   190829
       12  | 42:24.30 |  3:47.40 |    190830    |   207894
Track  1
     Filename J:\New Rips\Mose Allison - Ever Since The World Ended (1987) [FLAC] {Blue Note CDP 7 48015 2 rec 1987}\01 - Ever Since The World Ended.wav
     Pre-gap length  0:00:02.00
     Peak level 94.5 %
     Track quality 99.9 %
     Test CRC 12FDEB1E
     Copy CRC 12FDEB1E
     Cannot be verified as accurate (confidence 2)  [F068A5D0], AccurateRip returned [54264128]
     Copy OK
Track  2
     Filename J:\New Rips\Mose Allison - Ever Since The World Ended (1987) [FLAC] {Blue Note CDP 7 48015 2 rec 1987}\02 - Top Forty.wav
     Pre-gap length  0:00:02.00
     Peak level 94.5 %
     Track quality 99.9 %
     Test CRC A4E26847
     Copy CRC A4E26847
     Cannot be verified as accurate (confidence 2)  [704C3356], AccurateRip returned [70F87ED3]
     Copy OK
Track  3
     Filename J:\New Rips\Mose Allison - Ever Since The World Ended (1987) [FLAC] {Blue Note CDP 7 48015 2 rec 1987}\03 - Puttin' Up With Me.wav
     Pre-gap length  0:00:01.37
     Peak level 79.8 %
     Track quality 100.0 %
     Test CRC 6D7A5BC8
     Copy CRC 6D7A5BC8
     Cannot be verified as accurate (confidence 2)  [2259751A], AccurateRip returned [089811D5]
     Copy OK
Track  4
     Filename J:\New Rips\Mose Allison - Ever Since The World Ended (1987) [FLAC] {Blue Note CDP 7 48015 2 rec 1987}\04 - Josephine.wav
     Pre-gap length  0:00:01.26
     Peak level 94.5 %
     Track quality 99.9 %
     Test CRC C6EC617E
     Copy CRC C6EC617E
     Cannot be verified as accurate (confidence 2)  [EA167584], AccurateRip returned [010D542D]
     Copy OK
Track  5
     Filename J:\New Rips\Mose Allison - Ever Since The World Ended (1987) [FLAC] {Blue Note CDP 7 48015 2 rec 1987}\05 - I Looked In The Mirror.wav
     Pre-gap length  0:00:02.60
     Peak level 94.5 %
     Track quality 100.0 %
     Test CRC 1E0FEDBF
     Copy CRC 1E0FEDBF
     Cannot be verified as accurate (confidence 2)  [C316D9EF], AccurateRip returned [8E477E8E]
     Copy OK
Track  6
     Filename J:\New Rips\Mose Allison - Ever Since The World Ended (1987) [FLAC] {Blue Note CDP 7 48015 2 rec 1987}\06 - Indian Summer.wav
     Pre-gap length  0:00:01.20
     Peak level 94.5 %
     Track quality 100.0 %
     Test CRC 2B70B0F8
     Copy CRC 2B70B0F8
     Cannot be verified as accurate (confidence 3)  [07750A66], AccurateRip returned [EB1813C7]
     Copy OK
Track  7
     Filename J:\New Rips\Mose Allison - Ever Since The World Ended (1987) [FLAC] {Blue Note CDP 7 48015 2 rec 1987}\07 - Gettin' There.wav
     Pre-gap length  0:00:02.76
     Peak level 94.5 %
     Track quality 100.0 %
     Test CRC BC9D47EC
     Copy CRC BC9D47EC
     Cannot be verified as accurate (confidence 3)  [250362F0], AccurateRip returned [5C024D48]
     Copy OK
Track  8
     Filename J:\New Rips\Mose Allison - Ever Since The World Ended (1987) [FLAC] {Blue Note CDP 7 48015 2 rec 1987}\08 - Tai Chi Life.wav
     Pre-gap length  0:00:02.10
     Peak level 94.5 %
     Track quality 100.0 %
     Test CRC 7854B51A
     Copy CRC 7854B51A
     Cannot be verified as accurate (confidence 3)  [CF88FA26], AccurateRip returned [891EEB03]
     Copy OK
Track  9
     Filename J:\New Rips\Mose Allison - Ever Since The World Ended (1987) [FLAC] {Blue Note CDP 7 48015 2 rec 1987}\09 - What's Your Movie.wav
     Pre-gap length  0:00:01.16
     Peak level 94.5 %
     Track quality 99.9 %
     Test CRC 5AF6E253
     Copy CRC 5AF6E253
     Cannot be verified as accurate (confidence 2)  [3086DF14], AccurateRip returned [6D112E23]
     Copy OK
Track 10
     Filename J:\New Rips\Mose Allison - Ever Since The World Ended (1987) [FLAC] {Blue Note CDP 7 48015 2 rec 1987}\10 - Trouble In Mind.wav
     Pre-gap length  0:00:02.13
     Peak level 80.3 %
     Track quality 100.0 %
     Test CRC 506F5FB3
     Copy CRC 506F5FB3
     Cannot be verified as accurate (confidence 2)  [525FB80F], AccurateRip returned [49E0CB37]
     Copy OK
Track 11
     Filename J:\New Rips\Mose Allison - Ever Since The World Ended (1987) [FLAC] {Blue Note CDP 7 48015 2 rec 1987}\11 - I'm Alive.wav
     Peak level 94.5 %
     Track quality 100.0 %
     Test CRC 7B8FFB5F
     Copy CRC 7B8FFB5F
     Cannot be verified as accurate (confidence 2)  [9EF46765], AccurateRip returned [CA98658E]
     Copy OK
Track 12
     Filename J:\New Rips\Mose Allison - Ever Since The World Ended (1987) [FLAC] {Blue Note CDP 7 48015 2 rec 1987}\12 - Tumblin' Tumbleweeds.wav
     Pre-gap length  0:00:01.37
     Peak level 94.5 %
     Track quality 100.0 %
     Test CRC EFE4FC00
     Copy CRC EFE4FC00
     Cannot be verified as accurate (confidence 2)  [36F93388], AccurateRip returned [54F4C81A]
     Copy OK
No tracks could be verified as accurate
You may have a different pressing from the one(s) in the database
No errors occurred
End of status report
 
 
Содержание индексной карты (.CUE)
REM GENRE Jazz
REM DATE 1987
REM DISCID BF0AD30C
REM COMMENT "ExactAudioCopy v0.99pb5"
PERFORMER "Mose Allison"
TITLE "Ever Since The World Ended"
FILE "01 - Ever Since The World Ended.wav" WAVE
  TRACK 01 AUDIO
    TITLE "Ever Since The World Ended"
    PERFORMER "Mose Allison"
    INDEX 01 00:00:00
  TRACK 02 AUDIO
    TITLE "Top Forty"
    PERFORMER "Mose Allison"
    INDEX 00 04:49:67
FILE "02 - Top Forty.wav" WAVE
    INDEX 01 00:00:00
  TRACK 03 AUDIO
    TITLE "Puttin' Up With Me"
    PERFORMER "Mose Allison"
    INDEX 00 04:21:55
FILE "03 - Puttin' Up With Me.wav" WAVE
    INDEX 01 00:00:00
  TRACK 04 AUDIO
    TITLE "Josephine"
    PERFORMER "Mose Allison"
    INDEX 00 03:09:07
FILE "04 - Josephine.wav" WAVE
    INDEX 01 00:00:00
  TRACK 05 AUDIO
    TITLE "I Looked In The Mirror"
    PERFORMER "Mose Allison"
    INDEX 00 03:39:65
FILE "05 - I Looked In The Mirror.wav" WAVE
    INDEX 01 00:00:00
  TRACK 06 AUDIO
    TITLE "Indian Summer"
    PERFORMER "Mose Allison"
    INDEX 00 03:12:00
FILE "06 - Indian Summer.wav" WAVE
    INDEX 01 00:00:00
  TRACK 07 AUDIO
    TITLE "Gettin' There"
    PERFORMER "Mose Allison"
    INDEX 00 03:52:68
FILE "07 - Gettin' There.wav" WAVE
    INDEX 01 00:00:00
  TRACK 08 AUDIO
    TITLE "Tai Chi Life"
    PERFORMER "Mose Allison"
    INDEX 00 04:25:45
FILE "08 - Tai Chi Life.wav" WAVE
    INDEX 01 00:00:00
  TRACK 09 AUDIO
    TITLE "What's Your Movie"
    PERFORMER "Mose Allison"
    INDEX 00 03:37:40
FILE "09 - What's Your Movie.wav" WAVE
    INDEX 01 00:00:00
  TRACK 10 AUDIO
    TITLE "Trouble In Mind"
    PERFORMER "Mose Allison"
    INDEX 00 03:26:05
FILE "10 - Trouble In Mind.wav" WAVE
    INDEX 01 00:00:00
FILE "11 - I'm Alive.wav" WAVE
  TRACK 11 AUDIO
    TITLE "I'm Alive"
    PERFORMER "Mose Allison"
    INDEX 01 00:00:00
  TRACK 12 AUDIO
    TITLE "Tumblin' Tumbleweeds"
    PERFORMER "Mose Allison"
    INDEX 00 03:03:35
FILE "12 - Tumblin' Tumbleweeds.wav" WAVE
    INDEX 01 00:00:00
 
 
Состав
Mose Allison - Piano, Vocals
Arthur Blythe - Sax (Alto)
Kenny Burrell - Guitar
Dennis Irwin - Bass
Bob Malach - Sax (Alto), Sax (Tenor)
Bennie Wallace - Sax (Tenor)
Tom Whaley - Drums
Ben Sidran - Producer
19:51
494
Нет комментариев. Ваш будет первым!