Поиск

(Vocal Jazz, Swing, Piano Jazz) Nat King Cole - The Trouble With Me Is You {1944} - 1989, FLAC (tracks+.cue), lossless

(Vocal Jazz, Swing, Piano Jazz) Nat King Cole - The Trouble With Me Is You {1944} - 1989, FLAC (tracks+.cue), lossless
•Nat King Cole - The Trouble With Me Is You {1944}•
Жанр: Vocal Jazz, Swing, Piano Jazz
Страна-производитель диска: France
Год издания: 1989
Издатель (лейбл): ORO
Номер по каталогу: 075
Аудиокодек: FLAC (*.flac)
Тип рипа: tracks+.cue
Битрейт аудио: lossless
Продолжительность: 00:51:25
Источник (релизер): Рип с диска.
Наличие сканов в содержимом раздачи: да
Треклист:
01. Sweet Georgia Brown [02:27]
02. Satchel' Mouth Baby [03:33]
03. The Man on the Little White Keys [02:47]
04. Frim Fram Sauce [02:24]
05. If You Can't Smile and Say Yes [02:45]
06. The Trouble With Me Is You [04:22]
07. This Will Make You Laugh [03:24]
08. I Like to Riff [02:52]
09. Call the Police [03:17]
10. Too Marvelous for Words [02:22]
11. The Man I Love [02:26]
12. On the Sunny Side of the Street [02:30]
13. Barcarolle [04:00]
14. Besame Mucho [02:51]
15. Wouldn't You Like to Know [02:19]
16. Little Joe From Chicago [02:22]
17. That'll Just About Knock Me Out [02:39]
18. Indiana [01:57]

Personnel:
Nat King Cole - p, voc
Oscar Moore - g
Johnny Miller - bRecorded in Hollywood, California, 1944.
 
Лог создания рипа
Exact Audio Copy V1.0 beta 3 from 29. August 2011
Отчёт EAC об извлечении, выполненном 7. сентября 2012, 10:00
Nat King Cole / The Trouble With Me Is You
Дисковод: Optiarc DVD RW AD-5200A Adapter: 0 ID: 0
Режим чтения : Достоверность
Использование точного потока : Да
Отключение кэша аудио : Да
Использование указателей C2 : Нет
Коррекция смещения при чтении : 48
Способность читать области Lead-in и Lead-out : Нет
Заполнение пропущенных сэмплов тишиной : Да
Удаление блоков с тишиной в начале и конце : Нет
При вычислениях CRC использовались нулевые сэмплы : Да
Интерфейс : Встроенный Win32-интерфейс для Win NT/2000
Обработка зазоров : Добавлено к предыдущему треку
Выходной формат : Пользовательский кодировщик
Выбранный битрейт : 128 kBit/s
Качество : Высокий
Добавление ID3-тега : Нет
Утилита сжатия : C:\Program Files\Exact Audio Copy\Flac\flac.exe
Дополнительные параметры : -V -8 -T "Genre=%genre%" -T "Artist=%artist%" -T "Title=%title%" -T "Album=%albumtitle%" -T "Date=%year%" -T "Tracknumber=%tracknr%" -T "Comment=%comment%" %source%
TOC извлечённого CD
Трек | Старт | Длительность | Начальный сектор | Конечный сектор
---------------------------------------------------------------------
1 | 0:00.32 | 2:27.68 | 32 | 11124
2 | 2:28.25 | 3:33.60 | 11125 | 27159
3 | 6:02.10 | 2:47.42 | 27160 | 39726
4 | 8:49.52 | 2:24.10 | 39727 | 50536
5 | 11:13.62 | 2:45.35 | 50537 | 62946
6 | 13:59.22 | 4:22.60 | 62947 | 82656
7 | 18:22.07 | 3:24.48 | 82657 | 98004
8 | 21:46.55 | 2:52.65 | 98005 | 110969
9 | 24:39.45 | 3:17.20 | 110970 | 125764
10 | 27:56.65 | 2:22.27 | 125765 | 136441
11 | 30:19.17 | 2:26.25 | 136442 | 147416
12 | 32:45.42 | 2:30.18 | 147417 | 158684
13 | 35:15.60 | 4:00.00 | 158685 | 176684
14 | 39:15.60 | 2:51.50 | 176685 | 189559
15 | 42:07.35 | 2:19.25 | 189560 | 200009
16 | 44:26.60 | 2:22.37 | 200010 | 210696
17 | 46:49.22 | 2:39.60 | 210697 | 222681
18 | 49:29.07 | 1:57.03 | 222682 | 231459
Трек 1
Имя файла F:\1989.Nat King Cole - The Trouble With Me Is You\01. Sweet Georgia Brown.wav
Длина предзазора 0:00:02.32
Пиковый уровень 54.3 %
Скорость извлечения 2.0 X
Качество трека 100.0 %
CRC теста BF53EEA9
CRC копии BF53EEA9
Точное извлечение (достоверность 2) [0BE59E18] (AR v1)
Копирование... OK
Трек 2
Имя файла F:\1989.Nat King Cole - The Trouble With Me Is You\02. Satchel' Mouth Baby.wav
Пиковый уровень 73.3 %
Скорость извлечения 2.0 X
Качество трека 99.9 %
CRC теста 8C93BBF0
CRC копии 8C93BBF0
Точное извлечение (достоверность 2) [FE98917D] (AR v1)
Копирование... OK
Трек 3
Имя файла F:\1989.Nat King Cole - The Trouble With Me Is You\03. The Man on the Little White Keys.wav
Длина предзазора 0:00:00.25
Пиковый уровень 67.8 %
Скорость извлечения 2.4 X
Качество трека 100.0 %
CRC теста D2F3FA35
CRC копии D2F3FA35
Точное извлечение (достоверность 2) [B569D082] (AR v1)
Копирование... OK
Трек 4
Имя файла F:\1989.Nat King Cole - The Trouble With Me Is You\04. Frim Fram Sauce.wav
Длина предзазора 0:00:00.12
Пиковый уровень 63.8 %
Скорость извлечения 2.5 X
Качество трека 100.0 %
CRC теста 5706E167
CRC копии 5706E167
Точное извлечение (достоверность 2) [93613136] (AR v1)
Копирование... OK
Трек 5
Имя файла F:\1989.Nat King Cole - The Trouble With Me Is You\05. If You Can't Smile and Say Yes.wav
Пиковый уровень 84.7 %
Скорость извлечения 2.7 X
Качество трека 100.0 %
CRC теста ABE9856F
CRC копии ABE9856F
Точное извлечение (достоверность 2) [35E6F1D0] (AR v1)
Копирование... OK
Трек 6
Имя файла F:\1989.Nat King Cole - The Trouble With Me Is You\06. The Trouble With Me Is You.wav
Пиковый уровень 85.1 %
Скорость извлечения 3.0 X
Качество трека 100.0 %
CRC теста 08DDA791
CRC копии 08DDA791
Точное извлечение (достоверность 2) [71F9E718] (AR v1)
Копирование... OK
Трек 7
Имя файла F:\1989.Nat King Cole - The Trouble With Me Is You\07. This Will Make You Laugh.wav
Длина предзазора 0:00:00.32
Пиковый уровень 63.1 %
Скорость извлечения 3.1 X
Качество трека 100.0 %
CRC теста 06600875
CRC копии 06600875
Точное извлечение (достоверность 2) [4A5B8A23] (AR v1)
Копирование... OK
Трек 8
Имя файла F:\1989.Nat King Cole - The Trouble With Me Is You\08. I Like to Riff.wav
Длина предзазора 0:00:01.30
Пиковый уровень 99.9 %
Скорость извлечения 3.1 X
Качество трека 100.0 %
CRC теста 480249D7
CRC копии 480249D7
Точное извлечение (достоверность 2) [2E94039C] (AR v1)
Копирование... OK
Трек 9
Имя файла F:\1989.Nat King Cole - The Trouble With Me Is You\09. Call the Police.wav
Пиковый уровень 91.6 %
Скорость извлечения 3.3 X
Качество трека 100.0 %
CRC теста B80B0F53
CRC копии B80B0F53
Точное извлечение (достоверность 2) [B027DB31] (AR v1)
Копирование... OK
Трек 10
Имя файла F:\1989.Nat King Cole - The Trouble With Me Is You\10. Too Marvelous for Words.wav
Длина предзазора 0:00:01.13
Пиковый уровень 72.8 %
Скорость извлечения 3.1 X
Качество трека 100.0 %
CRC теста 74AE1732
CRC копии 74AE1732
Точное извлечение (достоверность 2) [033B426B] (AR v1)
Копирование... OK
Трек 11
Имя файла F:\1989.Nat King Cole - The Trouble With Me Is You\11. The Man I Love.wav
Пиковый уровень 62.2 %
Скорость извлечения 3.2 X
Качество трека 100.0 %
CRC теста 41E32F54
CRC копии 41E32F54
Точное извлечение (достоверность 2) [3EA624E0] (AR v1)
Копирование... OK
Трек 12
Имя файла F:\1989.Nat King Cole - The Trouble With Me Is You\12. On the Sunny Side of the Street.wav
Длина предзазора 0:00:00.10
Пиковый уровень 80.0 %
Скорость извлечения 3.3 X
Качество трека 100.0 %
CRC теста 530255EF
CRC копии 530255EF
Точное извлечение (достоверность 2) [15586216] (AR v1)
Копирование... OK
Трек 13
Имя файла F:\1989.Nat King Cole - The Trouble With Me Is You\13. Barcarolle.wav
Длина предзазора 0:00:00.18
Пиковый уровень 84.2 %
Скорость извлечения 3.1 X
Качество трека 99.9 %
CRC теста 7359D6A0
CRC копии 7359D6A0
Точное извлечение (достоверность 2) [F2B08B9C] (AR v1)
Копирование... OK
Трек 14
Имя файла F:\1989.Nat King Cole - The Trouble With Me Is You\14. Besame Mucho.wav
Длина предзазора 0:00:00.43
Пиковый уровень 79.1 %
Скорость извлечения 2.9 X
Качество трека 99.9 %
CRC теста 9488BCDC
CRC копии 9488BCDC
Точное извлечение (достоверность 2) [BAFBAE8D] (AR v1)
Копирование... OK
Трек 15
Имя файла F:\1989.Nat King Cole - The Trouble With Me Is You\15. Wouldn't You Like to Know.wav
Длина предзазора 0:00:01.00
Пиковый уровень 77.8 %
Скорость извлечения 3.2 X
Качество трека 100.0 %
CRC теста 9BC84F7A
CRC копии 9BC84F7A
Точное извлечение (достоверность 2) [3CCF4610] (AR v1)
Копирование... OK
Трек 16
Имя файла F:\1989.Nat King Cole - The Trouble With Me Is You\16. Little Joe From Chicago.wav
Длина предзазора 0:00:00.20
Пиковый уровень 77.4 %
Скорость извлечения 3.3 X
Качество трека 100.0 %
CRC теста D846F051
CRC копии D846F051
Точное извлечение (достоверность 2) [0B54DE69] (AR v1)
Копирование... OK
Трек 17
Имя файла F:\1989.Nat King Cole - The Trouble With Me Is You\17. That'll Just About Knock Me Out.wav
Длина предзазора 0:00:00.25
Пиковый уровень 88.6 %
Скорость извлечения 3.3 X
Качество трека 100.0 %
CRC теста C3DF144A
CRC копии C3DF144A
Точное извлечение (достоверность 2) [26F0A8C6] (AR v1)
Копирование... OK
Трек 18
Имя файла F:\1989.Nat King Cole - The Trouble With Me Is You\18. Indiana.wav
Длина предзазора 0:00:00.27
Пиковый уровень 87.4 %
Скорость извлечения 3.1 X
Качество трека 100.0 %
CRC теста D49A1B8E
CRC копии D49A1B8E
Точное извлечение (достоверность 2) [414BD408] (AR v1)
Копирование... OK
Все треки извлечены точно
Ошибок не произошло
Конец отчёта
==== Контрольная сумма отчёта 55307B5E82920A9A6B46A593995D2442974C43FEDE69193A189EB8BCE859FCA0 ====
 
Содержание индексной карты (.CUE)
REM GENRE Jazz
REM DATE 1989
REM DISCID F90C0E12
REM COMMENT "ExactAudioCopy v1.0b3"
PERFORMER "Nat King Cole"
TITLE "The Trouble With Me Is You"
FILE "01. Sweet Georgia Brown.wav" WAVE
TRACK 01 AUDIO
TITLE "Sweet Georgia Brown"
PERFORMER "Nat King Cole"
PREGAP 00:00:32
INDEX 01 00:00:00
FILE "02. Satchel' Mouth Baby.wav" WAVE
TRACK 02 AUDIO
TITLE "Satchel' Mouth Baby"
PERFORMER "Nat King Cole"
INDEX 01 00:00:00
TRACK 03 AUDIO
TITLE "The Man on the Little White Keys"
PERFORMER "Nat King Cole"
INDEX 00 03:33:35
FILE "03. The Man on the Little White Keys.wav" WAVE
INDEX 01 00:00:00
TRACK 04 AUDIO
TITLE "Frim Fram Sauce"
PERFORMER "Nat King Cole"
INDEX 00 02:47:30
FILE "04. Frim Fram Sauce.wav" WAVE
INDEX 01 00:00:00
FILE "05. If You Can't Smile and Say Yes.wav" WAVE
TRACK 05 AUDIO
TITLE "If You Can't Smile and Say Yes"
PERFORMER "Nat King Cole"
INDEX 01 00:00:00
FILE "06. The Trouble With Me Is You.wav" WAVE
TRACK 06 AUDIO
TITLE "The Trouble With Me Is You"
PERFORMER "Nat King Cole"
INDEX 01 00:00:00
TRACK 07 AUDIO
TITLE "This Will Make You Laugh"
PERFORMER "Nat King Cole"
INDEX 00 04:22:28
FILE "07. This Will Make You Laugh.wav" WAVE
INDEX 01 00:00:00
TRACK 08 AUDIO
TITLE "I Like to Riff"
PERFORMER "Nat King Cole"
INDEX 00 03:23:18
FILE "08. I Like to Riff.wav" WAVE
INDEX 01 00:00:00
FILE "09. Call the Police.wav" WAVE
TRACK 09 AUDIO
TITLE "Call the Police"
PERFORMER "Nat King Cole"
INDEX 01 00:00:00
TRACK 10 AUDIO
TITLE "Too Marvelous for Words"
PERFORMER "Nat King Cole"
INDEX 00 03:16:07
FILE "10. Too Marvelous for Words.wav" WAVE
INDEX 01 00:00:00
FILE "11. The Man I Love.wav" WAVE
TRACK 11 AUDIO
TITLE "The Man I Love"
PERFORMER "Nat King Cole"
INDEX 01 00:00:00
TRACK 12 AUDIO
TITLE "On the Sunny Side of the Street"
PERFORMER "Nat King Cole"
INDEX 00 02:26:15
FILE "12. On the Sunny Side of the Street.wav" WAVE
INDEX 01 00:00:00
TRACK 13 AUDIO
TITLE "Barcarolle"
PERFORMER "Nat King Cole"
INDEX 00 02:30:00
FILE "13. Barcarolle.wav" WAVE
INDEX 01 00:00:00
TRACK 14 AUDIO
TITLE "Besame Mucho"
PERFORMER "Nat King Cole"
INDEX 00 03:59:32
FILE "14. Besame Mucho.wav" WAVE
INDEX 01 00:00:00
TRACK 15 AUDIO
TITLE "Wouldn't You Like to Know"
PERFORMER "Nat King Cole"
INDEX 00 02:50:50
FILE "15. Wouldn't You Like to Know.wav" WAVE
INDEX 01 00:00:00
TRACK 16 AUDIO
TITLE "Little Joe From Chicago"
PERFORMER "Nat King Cole"
INDEX 00 02:19:05
FILE "16. Little Joe From Chicago.wav" WAVE
INDEX 01 00:00:00
TRACK 17 AUDIO
TITLE "That'll Just About Knock Me Out"
PERFORMER "Nat King Cole"
INDEX 00 02:22:12
FILE "17. That'll Just About Knock Me Out.wav" WAVE
INDEX 01 00:00:00
TRACK 18 AUDIO
TITLE "Indiana"
PERFORMER "Nat King Cole"
INDEX 00 02:39:33
FILE "18. Indiana.wav" WAVE
INDEX 01 00:00:00
06:03
463
Нет комментариев. Ваш будет первым!