Вы используете незарегистрированную версию компонента "Вкладки"!

Поиск

2014 Priscilla Pizzato - A Season At The Juilliard School [TVRip]

2014 Priscilla Pizzato - A Season At The Juilliard School [TVRip]
Описание:

Джульярдская школа (Juilliard School) — одно из крупнейших американских высших учебных заведений в области искусства и музыки. Расположена в нью-йоркском Линкольн-центре. Этой школе, расположенной в самом центре Нью-Йорка, больше ста лет. Сегодня она считается одной из самых лучших в мире и официально признана лучшей в Америке. Здесь можно получить степень бакалавра музыки в области вокала, джаза, фортепиано, органа, духовых, струнных и других инструментов. Кроме этого, есть отделение танца, драматургический и гуманитарный факультеты. Поступить ежегодно удается всего примерно 8% из всех желающих. Зато прошедшие счастливчики получают лучшие залы для выступлений, множество концертов, прекрасных педагогов, доступ в творческие студии и перспективы трудоустройства. Выпускники получают отличные языковые и речевые навыки, они умеют работать со сценариями, обладают смекалкой и толстой кожей. Именитые выпускники: Джессика Честейн, Лора Линни, Виола Дэвис, Патти Люпоун, Келси Грэммер, Робин Уильямс и другие. В сериале рассказывается о методах подготовки в Джульярдской школе.

Список серий

1. Новый учебный год (THE NEW SCHOOL YEAR)
2. На сцене (ON STAGE)
3. Ансамбль (ON STAGE)
4. Артисты (ARTISTS)
5. Другие горизонты (OTHER HORIZONS)
6. Мечты и реальность (DREAMS AND REALITY)

Год выпуска: 2014
Страна: Франция (ARTE FRANCE)
Жанр: мини-сериал
Продолжительность: ~00:27:00 (серия)
Перевод: Субтитры
Русские субтитры: есть
Формат субтитров: hardsub (неотключаемые)
Оригинальная аудиодорожка: французский
Режиссер: Присцилла Пизато /Priscilla Pizzato
Телеканал: Аруц 8 (Израиль)

Качество: TVRip
Формат: AVI
Видео: 1640 Кbps, 704х400 (16:9), 25.000 fps, MPEG-4 Visual (XviD)(Advanced Simple@L5)(BVOP2)
Аудио: 128 Kbps,48.0 KHz, 2 сhannels, MPEG Audio (MP3) (Version 1)(Layer 3)(Joint stereo/MS Stereo

Дополнительная информация:

Запись с канала "Аруц 8". Фильмы на французском языке с двойными субтитрами (вшитыми) на русском языке и иврите. Перевод: Ольга Еленицкая, Ольга Абрамова, Оксана Зацепина. Субтитры: Дори Медиа от ЛТД.

Отчёт DVDInfo/MediaInfo/BDInfo
General
Complete name : D:\Juilliard School\01.avi
Format : AVI
Format/Info : Audio Video Interleave
File size : 333 MiB
Duration : 26mn 9s
Overall bit rate : 1 778 Kbps
Writing library : VirtualDub-MPEG2 build 24600/release

Video
ID : 0
Format : MPEG-4 Visual
Format profile : Advanced Simple@L5
Format settings, BVOP : 2
Format settings, QPel : No
Format settings, GMC : No warppoints
Format settings, Matrix : Default (MPEG)
Codec ID : XVID
Codec ID/Hint : XviD
Duration : 26mn 9s
Bit rate : 1 640 Kbps
Width : 704 pixels
Height : 400 pixels
Display aspect ratio : 16:9
Frame rate : 25.000 fps
Color space : YUV
Chroma subsampling : 4:2:0
Bit depth : 8 bits
Scan type : Progressive
Compression mode : Lossy
Bits/(Pixel*Frame) : 0.233
Stream size : 307 MiB (92%)
Writing library : XviD 58

Audio
ID : 1
Format : MPEG Audio
Format version : Version 1
Format profile : Layer 3
Mode : Joint stereo
Mode extension : MS Stereo
Codec ID : 55
Codec ID/Hint : MP3
Duration : 26mn 9s
Bit rate mode : Constant
Bit rate : 128 Kbps
Channel(s) : 2 channels
Sampling rate : 48.0 KHz
Compression mode : Lossy
Stream size : 24.0 MiB (7%)
Alignment : Split accross interleaves
Interleave, duration : 40 ms (1.00 video frame)
Interleave, preload duration : 500 ms
Any questions - support@pro-jazz.com. Есть вопросы - support@pro-jazz.com
380
Нет комментариев. Ваш будет первым!