Вы используете незарегистрированную версию компонента "Вкладки"!

Поиск

2015 Asif Kapadia - Amy [HDTVRip]

2015 Asif Kapadia - Amy [HDTVRip]
Описание:

Документальный фильм лауреата премии BAFTA Азифа Кападиа проливает свет на мир, в котором жила Эми Уайнхаус, через автобиографические тексты ее песен, видео из личных архивов семьи и друзей, а также интервью близких и коллег. На протяжении долгого времени велись поиски и сбор уникального материала для картины. В фильме прозвучат неизвестные ранее треки и появятся кадры с пленок, на которых юная Эми в окружении друзей исполняет свои первые песни. Режиссер собрал около сотни аудиоинтервью в ближайшем кругу певицы.

 
x264 log
raw [info]: 1024x560p 1:1 @ 25/1 fps (cfr)
x264 [info]: using SAR=1/1
x264 [info]: using cpu capabilities: MMX2 SSE2Fast SSSE3 SSE4.2 AVX
x264 [info]: profile High, level 4.1
x264 [info]: frame I:1032  Avg QP:18.14  size: 52609
x264 [info]: frame P:48882 Avg QP:21.47  size: 14535
x264 [info]: frame B:130002 Avg QP:23.70  size:  4495
x264 [info]: consecutive B-frames:  4.5%  5.6%  6.5% 52.0% 10.2% 13.4%  2.9%  4.1%  0.7%
x264 [info]: mb I  I16..4:  9.8% 77.9% 12.3%
x264 [info]: mb P  I16..4:  3.4% 14.3%  1.0%  P16..4: 42.0% 11.3%  8.9%  0.2%  0.1%    skip:18.8%
x264 [info]: mb B  I16..4:  0.3%  1.2%  0.1%  B16..8: 32.3%  5.3%  1.0%  direct: 5.6%  skip:54.1%  L0:42.6% L1:49.6% BI: 7.8%
x264 [info]: 8x8 transform intra:76.8% inter:77.1%
x264 [info]: direct mvs  spatial:96.0% temporal:4.0%
x264 [info]: coded y,uvDC,uvAC intra: 65.5% 66.6% 23.8% inter: 17.0% 22.5% 1.1%
x264 [info]: i16 v,h,dc,p: 30% 18%  7% 45%
x264 [info]: i8 v,h,dc,ddl,ddr,vr,hd,vl,hu: 13%  9%  7%  8% 12% 14% 12% 12% 12%
x264 [info]: i4 v,h,dc,ddl,ddr,vr,hd,vl,hu: 16% 11%  4%  8% 13% 14% 12% 11% 11%
x264 [info]: i8c dc,h,v,p: 38% 25% 20% 18%
x264 [info]: Weighted P-Frames: Y:7.2% UV:3.2%
x264 [info]: ref P L0: 50.3% 11.7% 16.2%  6.4%  5.0%  4.0%  3.6%  2.4%  0.5%  0.0%
x264 [info]: ref B L0: 80.3%  9.6%  4.5%  2.2%  1.7%  1.1%  0.6%
x264 [info]: ref B L1: 95.7%  4.3%
x264 [info]: kb/s:1499.77
encoded 179916 frames, 27.55 fps, 1499.77 kb/s
Отчёт DVDInfo/MediaInfo/BDInfo
General
Unique ID : 221575726848836967148965178369035743960 (0xA6B1EEC74FC74D91844A8B3F5F7432D8)
Complete name : E:\uTorrent.Temp\Temp\Amy.2015.HDTVRip-AVC.x264-RUS-lrn.mkv
Format : Matroska
Format version : Version 4 / Version 2
File size : 1.58 GiB
Duration : 1h 59mn
Overall bit rate : 1 885 Kbps
Movie name : Amy.2015.HDTVRip-AVC.x264-RUS-lrn
Encoded date : UTC 2010-02-22 21:41:31
Writing application : mkvmerge v5.9.0 ('On The Loose') built on Dec 9 2012 15:37:01
Writing library : libebml v1.3.0 + libmatroska v1.4.0

Video
ID : 1
Format : AVC
Format/Info : Advanced Video Codec
Format profile : High@L4.1
Format settings, CABAC : Yes
Format settings, ReFrames : 8 frames
Codec ID : V_MPEG4/ISO/AVC
Duration : 1h 59mn
Bit rate : 1 500 Kbps
Width : 1 024 pixels
Height : 560 pixels
Display aspect ratio : 1.85:1
Frame rate mode : Constant
Frame rate : 25.000 fps
Color space : YUV
Chroma subsampling : 4:2:0
Bit depth : 8 bits
Scan type : Progressive
Bits/(Pixel*Frame) : 0.105
Stream size : 1.23 GiB (78%)
Writing library : x264 core 148 r2638 7599210
Encoding settings : cabac=1 / ref=8 / deblock=1:-3:-3 / analyse=0x3:0x133 / me=umh / subme=9 / psy=1 / psy_rd=1.00:0.00 / mixed_ref=1 / me_range=32 / chroma_me=1 / trellis=2 / 8x8dct=1 / cqm=0 / deadzone=21,11 / fast_pskip=1 / chroma_qp_offset=-2 / threads=12 / lookahead_threads=2 / sliced_threads=0 / nr=0 / decimate=1 / interlaced=0 / bluray_compat=0 / constrained_intra=0 / bframes=8 / b_pyramid=2 / b_adapt=2 / b_bias=0 / direct=3 / weightb=1 / open_gop=0 / weightp=2 / keyint=250 / keyint_min=25 / scenecut=40 / intra_refresh=0 / rc_lookahead=50 / rc=2pass / mbtree=1 / bitrate=1500 / ratetol=1.0 / qcomp=0.60 / qpmin=0 / qpmax=69 / qpstep=4 / cplxblur=20.0 / qblur=0.5 / vbv_maxrate=62500 / vbv_bufsize=78125 / nal_hrd=none / filler=0 / ip_ratio=1.40 / aq=1:1.00
Default : Yes
Forced : No
Statistics Tags Issue : mkvmerge v8.5.2 ('Crosses') 32bit 2016-03-06 04:36:04 / mkvmerge v5.9.0 ('On The Loose') built on Dec 9 2012 15:37:01 2010-02-22 21:41:31
FromStats_BitRate : 1499767
FromStats_Duration : 01:59:56.640000000
FromStats_FrameCount : 179916
FromStats_StreamSize : 1349161064

Audio
ID : 2
Format : AC-3
Format/Info : Audio Coding 3
Mode extension : CM (complete main)
Format settings, Endianness : Big
Codec ID : A_AC3
Duration : 1h 59mn
Bit rate mode : Constant
Bit rate : 384 Kbps
Channel(s) : 6 channels
Channel positions : Front: L C R, Side: L R, LFE
Sampling rate : 48.0 KHz
Frame rate : 31.250 fps (1536 spf)
Compression mode : Lossy
Stream size : 329 MiB (20%)
Language : Russian
Default : Yes
Forced : No
Any questions - support@pro-jazz.com. Есть вопросы - support@pro-jazz.com
394
Нет комментариев. Ваш будет первым!