Вы используете незарегистрированную версию компонента "Вкладки"!

Поиск

2010 Paco de Lucia - at Montreux Jazz Fest [HDTV 720p]

2010 Paco de Lucia - at Montreux Jazz Fest [HDTV 720p]
Дата проведения концерта (записи):
8 июля 2010
Место проведения:
Montreux Jazz Festival, Switzerland
Состав:
  • Lucia (guitar)
  • Sanchez (guitar)
  • Serrano (harmonica, keyboards)
  • Perez (bass)
  • Piranha (percussions)
  • Duquende (vocals)
  • Jacoba (vocals)
  • Farruco (dancer)
Треклист:

1. Rumba - Palenque(00:09:10)
2. Rumba - Convite(00:07:25)
3. Seguiriya - Luzia(00:13:47)
4. Ziryab(00:17:46)

Дополнительная информация:

Продолжительность: 50min 2sec
Год выпуска: 2010

Качество: HDTV
Контейнер: TS
Видео кодек: H.264
Аудио кодек: AC3
Видео: High@L4.0 AVC Bit rate : 7 078 Kbps 1280x720 16/9 50.000 fps
Аудио: AC3 Audio 448 Kbps 2 channels Constant 48.0 KHz

Отчёт DVDInfo/MediaInfo/BDInfo
Общее
Идентификатор : 1 (0x1)
Полное имя : \\Paco de Lucia\Jazzfestival Montreux 2010 - Paco de Lucia.ts
Формат : MPEG-TS
Размер файла : 2,77 Гбайт
Продолжительность : 50 м. 1 с.
Режим общего битрейта : Переменный
Общий поток : 7922 Кбит/сек
Максимальный общий битрейт : 35,5 Мбит/сек

Видео
Идентификатор : 4113 (0x1011)
Идентификатор меню : 1 (0x1)
Формат : AVC
Формат/Информация : Advanced Video Codec
Профиль формата : High@L4
Настройки формата : CABAC / 2 Ref Frames
Параметр CABAC формата : Да
Параметр RefFrames формата : 2 кадра
Параметр GOP формата : M=3, N=24
Идентификатор кодека : 27
Продолжительность : 50 м. 1 с.
Вид битрейта : Переменный
Битрейт : 7078 Кбит/сек
Максимальный битрейт : 13,2 Мбит/сек
Ширина : 1280 пикселей
Высота : 720 пикселей
Соотношение сторон : 16:9
Частота кадров : 50,000 кадров/сек
Цветовое пространство : YUV
Субдискретизация насыщенности : 4:2:0
Битовая глубина : 8 бит
Тип развёртки : Прогрессивная
Бит/(Пиксели*Кадры) : 0.154
Размер потока : 2,47 Гбайт (89%)
Цветовой диапазон : Limited
Основные цвета : BT.709
Характеристики трансфера : BT.709
Коэффициенты матрицы : BT.709

Аудио
Идентификатор : 4352 (0x1100)
Идентификатор меню : 1 (0x1)
Формат : AC-3
Формат/Информация : Audio Coding 3
Коммерческое название : Dolby Digital
Идентификатор кодека : 129
Продолжительность : 50 м. 1 с.
Вид битрейта : Постоянный
Битрейт : 448 Кбит/сек
Каналы : 2 канала
Channel layout : L R
Частота : 48,0 КГц
Частота кадров : 31,250 кадров/сек (1536 SPF)
Битовая глубина : 16 бит
Метод сжатия : С потерями
Задержка видео : 21 мс.
Размер потока : 160 Мбайт (6%)
Язык : English
ServiceKind/String : Complete Main
Скриншоты видео
2010 Paco de Lucia - at Montreux Jazz Fest [HDTV 720p] 02010 Paco de Lucia - at Montreux Jazz Fest [HDTV 720p] 12010 Paco de Lucia - at Montreux Jazz Fest [HDTV 720p] 22010 Paco de Lucia - at Montreux Jazz Fest [HDTV 720p] 3
Any questions - support@pro-jazz.com.
Есть вопросы - support@pro-jazz.com
425
Нет комментариев. Ваш будет первым!