Вы используете незарегистрированную версию компонента "Вкладки"!

Поиск

2011 Beats & Pieces Big Band - Live at 42. Internationalen Jazzwoche Burghausen [HDTV 720p]

2011 Beats & Pieces Big Band - Live at 42. Internationalen Jazzwoche Burghausen [HDTV 720p]
Стиль:
Состав:
  • Mit Ben Cottrell (Leitung)
  • Sam Healey (Saxofon),
  • Ben Watte (Saxofon)
  • Anthony Brown (Saxofon)
  • Simon Lodge (Posaune)
  • Mark Francis (Posaune)
  • Paul Strachan (Posaune)
  • Graham South (Trompete, Flgelhorn)
  • Owen Bryce (Trompete)
  • Nick Walters (Trompete)
  • Patrick Hurley (Klavier, Keyboard)
  • Anton Hunter (Gitarre)
  • Harrison Wood (Bass)
  • Finlay Panter (Schlagzeug)
Треклист:

01. Bake
02. YAFM (Part III
03. Three
04. Anymore
05. Toan
06. Queens Spark
07. Nude / 15 Step
08. Everything In Its Right Place / Just
09. Broken
10. Djimi

Описание:

Продолжительность: 1:26:56
Год выпуска: 2011

Доп. информация: 3sat.de
Качество: HDTVRip 720p
Контейнер: MKV
Видео кодек: H.264
Аудио кодек: AC3
Видео: AVC, 1256x720, 16:9, 4000 Kbps, 25 fps
Аудио: AC3, 448 Kbps, 48 KHz, 2 ch

Отчёт DVDInfo/MediaInfo/BDInfo
General
Unique ID : 229982424012482978250258782493852452887 (0xAD0500F31003CF90B0AA129695124817)
Complete name : K:\Beats_And_Pieces_Big_Band-Live_At_42th_Internationale_Jazzwoche_Burghausen_(2011)-720p-x264-2012-gFViD\beats_and_pieces_big_band-live_at_42th_internationale_jazzwoche_burghausen_(2011)-720p-x264-2012.mkv
Format : Matroska
Format version : Version 2
File size : 2.70 GiB
Duration : 1h 26mn
Overall bit rate : 4 450 Kbps
Encoded date : UTC 2012-12-13 15:05:48
Writing application : mkvmerge v5.8.0 ('No Sleep / Pillow') built on Sep 2 2012 15:37:04
Writing library : libebml v1.2.3 + libmatroska v1.3.0

Video
ID : 1
Format : AVC
Format/Info : Advanced Video Codec
Format profile : High@L4.1
Format settings, CABAC : Yes
Format settings, ReFrames : 4 frames
Codec ID : V_MPEG4/ISO/AVC
Duration : 1h 26mn
Bit rate : 4 000 Kbps
Width : 1 256 pixels
Height : 720 pixels
Display aspect ratio : 16:9
Frame rate : 25.000 fps
Color space : YUV
Chroma subsampling : 4:2:0
Bit depth : 8 bits
Scan type : Progressive
Bits/(Pixel*Frame) : 0.177
Stream size : 2.38 GiB (88%)
Writing library : x264 core 129 r2230 1cffe9f
Encoding settings : cabac=1 / ref=4 / deblock=1:0:0 / analyse=0x3:0x113 / me=umh / subme=9 / psy=1 / psy_rd=1.00:0.00 / mixed_ref=1 / me_range=32 / chroma_me=1 / trellis=1 / 8x8dct=1 / cqm=0 / deadzone=21,11 / fast_pskip=1 / chroma_qp_offset=-2 / threads=9 / lookahead_threads=1 / sliced_threads=0 / nr=0 / decimate=1 / interlaced=0 / bluray_compat=0 / constrained_intra=0 / bframes=3 / b_pyramid=2 / b_adapt=1 / b_bias=0 / direct=1 / weightb=1 / open_gop=0 / weightp=2 / keyint=250 / keyint_min=25 / scenecut=40 / intra_refresh=0 / rc_lookahead=40 / rc=2pass / mbtree=1 / bitrate=4000 / ratetol=1.0 / qcomp=0.60 / qpmin=0 / qpmax=69 / qpstep=4 / cplxblur=20.0 / qblur=0.5 / ip_ratio=1.40 / aq=1:1.00
Default : Yes
Forced : No

Audio
ID : 2
Format : AC-3
Format/Info : Audio Coding 3
Mode extension : CM (complete main)
Format settings, Endianness : Big
Codec ID : A_AC3
Duration : 1h 26mn
Bit rate mode : Constant
Bit rate : 448 Kbps
Channel(s) : 2 channels
Channel positions : Front: L R
Sampling rate : 48.0 KHz
Bit depth : 16 bits
Compression mode : Lossy
Stream size : 279 MiB (10%)
Default : Yes
Forced : No
Скриншоты видео
2011 Beats & Pieces Big Band - Live at 42. Internationalen Jazzwoche Burghausen [HDTV 720p] 02011 Beats & Pieces Big Band - Live at 42. Internationalen Jazzwoche Burghausen [HDTV 720p] 12011 Beats & Pieces Big Band - Live at 42. Internationalen Jazzwoche Burghausen [HDTV 720p] 22011 Beats & Pieces Big Band - Live at 42. Internationalen Jazzwoche Burghausen [HDTV 720p] 32011 Beats & Pieces Big Band - Live at 42. Internationalen Jazzwoche Burghausen [HDTV 720p] 42011 Beats & Pieces Big Band - Live at 42. Internationalen Jazzwoche Burghausen [HDTV 720p] 5
Any questions - support@pro-jazz.com.
Есть вопросы - support@pro-jazz.com
324
Нет комментариев. Ваш будет первым!