Вы используете незарегистрированную версию компонента "Вкладки"!

Поиск

2011 Trombone Shorty & Orleans Avenue - at Montreux Jazz Festival [HDTV 720p]

2011 Trombone Shorty & Orleans Avenue - at Montreux Jazz Festival [HDTV 720p]
Стиль:
Место проведения:
Montreux Jazz Festival
Время звучания:
00:46:16
Главы (разбивка по трекам):
нет
Качество:
HDTV
Контейнер:
TS
Состав:
  • Troy Andrwes - trombone, trumpet, vocals
  • Tim McFatter - tenor sax
  • Pete Murano - guitar
  • Mike Ballard - bass
  • Joey Peebles - drums
  • Dan Oestreicher - bariton sax
Треклист:

1. Claiborne
2. On Your Way Down
3. Hurricane Season
4. Where Y' At
5. Right to Complain
6. St. Jamer Infirmary
7. Sunny Side of the Street
8. Neph
9. One Night Only

Видео:
AVC (h.264) / 1280*720p / 16x9 / 9020Mbps / 50fps
Аудио#1:
German, French, Italian, English, AC-3, 448 Kbps, 48.0 KHz, 2 channels
Отчёт DVDInfo/MediaInfo/BDInfo
Общее
Идентификатор : 8500 (0x2134)
Полное имя : \\Trombone Shorty\20111205 0032 - HD suisse - Jazzfestival Montreux 2011.ts
Формат : MPEG-TS
Размер файла : 3,68 Гбайт
Продолжительность : 46 м. 16 с.
Режим общего битрейта : Переменный
Общий поток : 11,4 Мбит/сек

Видео
Идентификатор : 180 (0xB4)
Идентификатор меню : 990 (0x3DE)
Формат : AVC
Формат/Информация : Advanced Video Codec
Профиль формата : High@L4
Настройки формата : CABAC / 2 Ref Frames
Параметр CABAC формата : Да
Параметр RefFrames формата : 2 кадра
Параметр GOP формата : M=3, N=24
Идентификатор кодека : 27
Продолжительность : 46 м. 16 с.
Вид битрейта : Переменный
Битрейт : 9020 Кбит/сек
Максимальный битрейт : 13,2 Мбит/сек
Ширина : 1280 пикселей
Высота : 720 пикселей
Соотношение сторон : 16:9
Частота кадров : 50,000 кадров/сек
Цветовое пространство : YUV
Субдискретизация насыщенности : 4:2:0
Битовая глубина : 8 бит
Тип развёртки : Прогрессивная
Бит/(Пиксели*Кадры) : 0.196
Размер потока : 2,92 Гбайт (79%)
Encryption : TPS-Crypt or Viaccess
Цветовой диапазон : Limited
Основные цвета : BT.709
Характеристики трансфера : BT.709
Коэффициенты матрицы : BT.709

Аудио #1
Идентификатор : 131 (0x83)
Идентификатор меню : 990 (0x3DE)
Формат : AC-3
Формат/Информация : Audio Coding 3
Коммерческое название : Dolby Digital
Идентификатор кодека : 6
Продолжительность : 46 м. 16 с.
Вид битрейта : Постоянный
Битрейт : 448 Кбит/сек
Каналы : 2 канала
Channel layout : L R
Частота : 48,0 КГц
Частота кадров : 31,250 кадров/сек (1536 SPF)
Битовая глубина : 16 бит
Метод сжатия : С потерями
Задержка видео : -1 с. 40 мс.
Размер потока : 148 Мбайт (4%)
Язык : German
Язык, дополнительно : Clean effects
ServiceKind/String : Complete Main
Encryption : TPS-Crypt or Viaccess

Аудио #2
Идентификатор : 132 (0x84)
Идентификатор меню : 990 (0x3DE)
Формат : AC-3
Формат/Информация : Audio Coding 3
Коммерческое название : Dolby Digital
Идентификатор кодека : 6
Продолжительность : 46 м. 16 с.
Вид битрейта : Постоянный
Битрейт : 448 Кбит/сек
Каналы : 2 канала
Channel layout : L R
Частота : 48,0 КГц
Частота кадров : 31,250 кадров/сек (1536 SPF)
Битовая глубина : 16 бит
Метод сжатия : С потерями
Задержка видео : -1 с. 216 мс.
Размер потока : 148 Мбайт (4%)
Язык : French
Язык, дополнительно : Clean effects
ServiceKind/String : Complete Main
Encryption : TPS-Crypt or Viaccess

Аудио #3
Идентификатор : 133 (0x85)
Идентификатор меню : 990 (0x3DE)
Формат : AC-3
Формат/Информация : Audio Coding 3
Коммерческое название : Dolby Digital
Идентификатор кодека : 6
Продолжительность : 46 м. 16 с.
Вид битрейта : Постоянный
Битрейт : 448 Кбит/сек
Каналы : 2 канала
Channel layout : L R
Частота : 48,0 КГц
Частота кадров : 31,250 кадров/сек (1536 SPF)
Битовая глубина : 16 бит
Метод сжатия : С потерями
Задержка видео : -1 с. 132 мс.
Размер потока : 148 Мбайт (4%)
Язык : Italian
Язык, дополнительно : Clean effects
ServiceKind/String : Complete Main
Encryption : TPS-Crypt or Viaccess

Аудио #4
Идентификатор : 134 (0x86)
Идентификатор меню : 990 (0x3DE)
Формат : AC-3
Формат/Информация : Audio Coding 3
Коммерческое название : Dolby Digital
Идентификатор кодека : 6
Продолжительность : 46 м. 16 с.
Вид битрейта : Постоянный
Битрейт : 448 Кбит/сек
Каналы : 2 канала
Channel layout : L R
Частота : 48,0 КГц
Частота кадров : 31,250 кадров/сек (1536 SPF)
Битовая глубина : 16 бит
Метод сжатия : С потерями
Задержка видео : -1 с. 128 мс.
Размер потока : 148 Мбайт (4%)
Язык : English
Язык, дополнительно : Clean effects
ServiceKind/String : Complete Main
Encryption : TPS-Crypt or Viaccess

Меню
Идентификатор : 420 (0x1A4)
Идентификатор меню : 990 (0x3DE)
Продолжительность : 46 м. 16 с.
Список : 180 (0xB4) (AVC) / 131 (0x83) (AC-3, German) / 132 (0x84) (AC-3, French) / 133 (0x85) (AC-3, Italian) / 134 (0x86) (AC-3, English)
Язык : / German / French / Italian / English
Any questions - support@pro-jazz.com.
Есть вопросы - support@pro-jazz.com
287
Нет комментариев. Ваш будет первым!