Вы используете незарегистрированную версию компонента "Вкладки"!

Поиск

2011 Zaz - Je Veux + bonus [HDTV 720]

2011 Zaz - Je Veux + bonus [HDTV 720]
Треклист:

01. Je Veux (live) - 00:04:09
02. bonus(unplugged) - 00:01:49

Жанр: mixing jazzy styles, French
Год выпуска: 2011

Качество: HDTV
Контейнер: TS
Видео кодек: H.264
Аудио кодек: AC3
Видео: H.264; 1280x720 ;~10,1 Мбит/сек Мбит/сек ;50,000 кадр/сек
Аудио: AC-3 ;448 Кбит/сек ;48,0 КГц; 6 ch(Front: L C R, Side: L R, LFE)

Описание:

Исполнение Zaz Je Veux на фестивале.Бонус — импровизация на улице Баден-Бадена.

Отчёт DVDInfo/MediaInfo/BDInfo
Общее
Идентификатор : 6 (0x6)
Полное имя : \\Zaz\Zaz - Je Veux(BB).ts
Формат : MPEG-TS
Размер файла : 330 Мбайт
Продолжительность : 4 м. 9 с.
Режим общего битрейта : Переменный
Общий поток : 11,1 Мбит/сек

Видео
Идентификатор : 6010 (0x177A)
Идентификатор меню : 11100 (0x2B5C)
Формат : AVC
Формат/Информация : Advanced Video Codec
Профиль формата : High@L4
Настройки формата : CABAC / 5 Ref Frames
Параметр CABAC формата : Да
Параметр RefFrames формата : 5 кадров
Параметр GOP формата : M=16, N=32
Идентификатор кодека : 27
Продолжительность : 4 м. 9 с.
Вид битрейта : Переменный
Битрейт : 10,1 Мбит/сек
Максимальный битрейт : 11,5 Мбит/сек
Ширина : 1280 пикселей
Высота : 720 пикселей
Соотношение сторон : 16:9
Частота кадров : 50,000 кадров/сек
Цветовое пространство : YUV
Субдискретизация насыщенности : 4:2:0
Битовая глубина : 8 бит
Тип развёртки : Прогрессивная
Бит/(Пиксели*Кадры) : 0.219
Размер потока : 300 Мбайт (91%)
Цветовой диапазон : Limited
Основные цвета : BT.709
Характеристики трансфера : BT.709
Коэффициенты матрицы : BT.709

Аудио
Идентификатор : 6022 (0x1786)
Идентификатор меню : 11100 (0x2B5C)
Формат : AC-3
Формат/Информация : Audio Coding 3
Коммерческое название : Dolby Digital
Идентификатор кодека : 6
Продолжительность : 4 м. 9 с.
Вид битрейта : Постоянный
Битрейт : 448 Кбит/сек
Каналы : 6 каналов
Channel layout : L R C LFE Ls Rs
Частота : 48,0 КГц
Частота кадров : 31,250 кадров/сек (1536 SPF)
Битовая глубина : 16 бит
Метод сжатия : С потерями
Задержка видео : 54 мс.
Размер потока : 13,3 Мбайт (4%)
Язык : German
ServiceKind/String : Complete Main
Скриншоты видео
2011 Zaz - Je Veux + bonus [HDTV 720] 02011 Zaz - Je Veux + bonus [HDTV 720] 12011 Zaz - Je Veux + bonus [HDTV 720] 22011 Zaz - Je Veux + bonus [HDTV 720] 3
Any questions - support@pro-jazz.com.
Есть вопросы - support@pro-jazz.com
282
Нет комментариев. Ваш будет первым!