Вы используете незарегистрированную версию компонента "Вкладки"!

Поиск

2012 Klaus Doldinger's Passport - Leverkusener Jazztage [HDTV 720p]

2012  Klaus Doldinger's Passport - Leverkusener Jazztage [HDTV 720p]
Стиль:
Состав:
  • Klaus Doldinger - tenor saxophone
  • Michael Hornek - keyboards
  • Patrick Scales - bass
  • Peter O'Mara - guitar
  • Christian Lettner - drums
  • Ernst Ströer - percussion
  • Biboul Darouiche - percussion
Треклист:

1. Reng Deng
2. Dark Flame
3. Mandragora
4. Sahara Sketches
5. Bye Bye Blackbird
6. Tatort
7. Fifty Years Later

Описание:

Продолжительность: 00:57:59
Год выпуска: 2012

Качество: HDTV 720p
Контейнер: TS
Видео кодек: H.264
Аудио кодек: AC3
Видео: 8636 Kbps, 1280*720 (16:9), at 50.000 fps, AVC (High@L3.2) (CABAC / 4 Ref Frames)
Аудио: English 192 Kbps, 48.0 KHz, 2 channels, MPEG Audio (Version 1) (Layer 2)
Источник: Digital Satellite > SkyStar HD2 (TechniSat) > ts > raw data to HDD > VideoReDo TVSuite V4 > ts

Дополнительная информация:
 
разбивка по главам:

<?xml version="1.0"?>
<!-- <!DOCTYPE Chapters SYSTEM "matroskachapters.dtd"> -->
<Chapters>
<EditionEntry>
<EditionUID>11390771477736982792</EditionUID>
<ChapterAtom>
<ChapterTimeStart>00:00:00.000000000</ChapterTimeStart>
<ChapterUID>6402398223288464258</ChapterUID>
<ChapterTimeEnd>00:00:30.000000000</ChapterTimeEnd>
<ChapterDisplay>
<ChapterString>Intro</ChapterString>
<ChapterLanguage>eng</ChapterLanguage>
</ChapterDisplay>
</ChapterAtom>
<ChapterAtom>
<ChapterTimeStart>00:00:30.000000000</ChapterTimeStart>
<ChapterUID>14719516905794540504</ChapterUID>
<ChapterTimeEnd>00:07:37.000000000</ChapterTimeEnd>
<ChapterDisplay>
<ChapterString>1 - Reng Deng</ChapterString>
<ChapterLanguage>eng</ChapterLanguage>
</ChapterDisplay>
</ChapterAtom>
<ChapterAtom>
<ChapterTimeStart>00:07:37.000000000</ChapterTimeStart>
<ChapterUID>7455778258201042929</ChapterUID>
<ChapterTimeEnd>00:16:30.000000000</ChapterTimeEnd>
<ChapterDisplay>
<ChapterString>2 - Dark Flame</ChapterString>
<ChapterLanguage>eng</ChapterLanguage>
</ChapterDisplay>
</ChapterAtom>
<ChapterAtom>
<ChapterTimeStart>00:16:30.000000000</ChapterTimeStart>
<ChapterUID>2202225222017793476</ChapterUID>
<ChapterTimeEnd>00:24:20.000000000</ChapterTimeEnd>
<ChapterDisplay>
<ChapterString>3 - Mandragora</ChapterString>
<ChapterLanguage>eng</ChapterLanguage>
</ChapterDisplay>
</ChapterAtom>
<ChapterAtom>
<ChapterTimeStart>00:24:20.000000000</ChapterTimeStart>
<ChapterUID>15590017580703757708</ChapterUID>
<ChapterTimeEnd>00:37:33.000000000</ChapterTimeEnd>
<ChapterDisplay>
<ChapterString>4 - Sahara Sketches</ChapterString>
<ChapterLanguage>eng</ChapterLanguage>
</ChapterDisplay>
</ChapterAtom>
<ChapterAtom>
<ChapterTimeStart>00:37:33.000000000</ChapterTimeStart>
<ChapterUID>16054214387061159435</ChapterUID>
<ChapterTimeEnd>00:43:32.000000000</ChapterTimeEnd>
<ChapterDisplay>
<ChapterString>5 - Bye Bye Blackbird</ChapterString>
<ChapterLanguage>eng</ChapterLanguage>
</ChapterDisplay>
</ChapterAtom>
<ChapterAtom>
<ChapterTimeStart>00:43:32.000000000</ChapterTimeStart>
<ChapterUID>7024609688664238369</ChapterUID>
<ChapterTimeEnd>00:48:40.000000000</ChapterTimeEnd>
<ChapterDisplay>
<ChapterString>6 - Tatort</ChapterString>
<ChapterLanguage>eng</ChapterLanguage>
</ChapterDisplay>
</ChapterAtom>
<ChapterAtom>
<ChapterTimeStart>00:48:40.000000000</ChapterTimeStart>
<ChapterUID>16516730071289455685</ChapterUID>
<ChapterTimeEnd>00:57:59.640000000</ChapterTimeEnd>
<ChapterDisplay>
<ChapterString>7 - Fifty Years Later</ChapterString>
<ChapterLanguage>eng</ChapterLanguage>
</ChapterDisplay>
</ChapterAtom>
</EditionEntry>
</Chapters>

Отчёт DVDInfo/MediaInfo/BDInfo
General
ID : 1 (0x1)
Complete name : K:\WDR HD_Klaus Doldinger's Passport - Leverkusener Jazztage 2012.ts
Format : MPEG-TS
File size : 3.76 GiB
Duration : 57mn 59s
Overall bit rate : 9 289 Kbps

Video
ID : 5501 (0x157D)
Menu ID : 1 (0x1)
Format : AVC
Format/Info : Advanced Video Codec
Format profile : High@L3.2
Format settings, CABAC : Yes
Format settings, ReFrames : 4 frames
Format settings, GOP : M=3, N=16
Codec ID : 27
Duration : 57mn 59s
Bit rate : 8 636 Kbps
Width : 1 280 pixels
Height : 720 pixels
Display aspect ratio : 16:9
Frame rate : 50.000 fps
Color space : YUV
Chroma subsampling : 4:2:0
Bit depth : 8 bits
Scan type : Progressive
Bits/(Pixel*Frame) : 0.187
Stream size : 3.50 GiB (93%)

Audio
ID : 5502 (0x157E)
Menu ID : 1 (0x1)
Format : MPEG Audio
Format version : Version 1
Format profile : Layer 2
Codec ID : 3
Duration : 57mn 59s
Bit rate mode : Constant
Bit rate : 192 Kbps
Channel(s) : 2 channels
Sampling rate : 48.0 KHz
Compression mode : Lossy
Stream size : 79.6 MiB (2%)
Language : English
Скриншоты видео
2012  Klaus Doldinger's Passport - Leverkusener Jazztage [HDTV 720p] 02012  Klaus Doldinger's Passport - Leverkusener Jazztage [HDTV 720p] 12012  Klaus Doldinger's Passport - Leverkusener Jazztage [HDTV 720p] 22012  Klaus Doldinger's Passport - Leverkusener Jazztage [HDTV 720p] 32012  Klaus Doldinger's Passport - Leverkusener Jazztage [HDTV 720p] 42012  Klaus Doldinger's Passport - Leverkusener Jazztage [HDTV 720p] 52012  Klaus Doldinger's Passport - Leverkusener Jazztage [HDTV 720p] 62012  Klaus Doldinger's Passport - Leverkusener Jazztage [HDTV 720p] 72012  Klaus Doldinger's Passport - Leverkusener Jazztage [HDTV 720p] 8
Any questions - support@pro-jazz.com.
Есть вопросы - support@pro-jazz.com
366
Нет комментариев. Ваш будет первым!