Вы используете незарегистрированную версию компонента "Вкладки"!

Поиск

2012 Paul Kuhn & Band - Live at 33. Leverkusener Jazztage [HDTV 720p]

2012 Paul Kuhn & Band - Live at 33. Leverkusener Jazztage [HDTV 720p]
Стиль:
Треклист:

01. Almost The Blues
02. You Driving Me Crazy
03. Griff
04. How About You
05. Charade
06. Speak Low
07. London By Night
08. One Morning In May
09. Scrapple From The Apple
10. Someone To Watch Over Me (feat. Gaby Goldberg
11. As Time Goes By

Описание:

Продолжительность: 00:59:22
Год выпуска: 2012

Качество: HDTV 720p
Контейнер: MKV
Видео кодек: H.264
Аудио кодек: AC3
Видео: AVC, 1248x720, 1.733, 4000 Kbps, 25 fps
Аудио: AC3, 448 Kbps, 48 KHz, 2 ch

Отчёт DVDInfo/MediaInfo/BDInfo
General
Unique ID : 194030579381825139683559834000715354925 (0x91F8EE27DE04FB1B99FC4C5A137F132D)
Complete name : K:\Paul_Kuhn_And_Band-Live_At_33th_Leverkusener_Jazztage_(2012)-720p-x264-2012-gFViD\paul_kuhn_and_band-live_at_33th_leverkusener_jazztage_(2012)_720p-x264-2012.mkv
Format : Matroska
Format version : Version 2
File size : 1.85 GiB
Duration : 59mn 22s
Overall bit rate : 4 450 Kbps
Encoded date : UTC 2012-12-11 19:38:55
Writing application : mkvmerge v5.8.0 ('No Sleep / Pillow') built on Sep 2 2012 15:37:04
Writing library : libebml v1.2.3 + libmatroska v1.3.0

Video
ID : 1
Format : AVC
Format/Info : Advanced Video Codec
Format profile : High@L4.1
Format settings, CABAC : Yes
Format settings, ReFrames : 4 frames
Codec ID : V_MPEG4/ISO/AVC
Duration : 59mn 22s
Bit rate : 4 000 Kbps
Width : 1 248 pixels
Height : 720 pixels
Display aspect ratio : 1.733
Frame rate : 25.000 fps
Color space : YUV
Chroma subsampling : 4:2:0
Bit depth : 8 bits
Scan type : Progressive
Bits/(Pixel*Frame) : 0.178
Stream size : 1.62 GiB (88%)
Writing library : x264 core 129 r2230 1cffe9f
Encoding settings : cabac=1 / ref=4 / deblock=1:0:0 / analyse=0x3:0x113 / me=umh / subme=9 / psy=1 / psy_rd=1.00:0.00 / mixed_ref=1 / me_range=32 / chroma_me=1 / trellis=1 / 8x8dct=1 / cqm=0 / deadzone=21,11 / fast_pskip=1 / chroma_qp_offset=-2 / threads=9 / lookahead_threads=1 / sliced_threads=0 / nr=0 / decimate=1 / interlaced=0 / bluray_compat=0 / constrained_intra=0 / bframes=3 / b_pyramid=2 / b_adapt=1 / b_bias=0 / direct=1 / weightb=1 / open_gop=0 / weightp=2 / keyint=250 / keyint_min=25 / scenecut=40 / intra_refresh=0 / rc_lookahead=40 / rc=2pass / mbtree=1 / bitrate=4000 / ratetol=1.0 / qcomp=0.60 / qpmin=0 / qpmax=69 / qpstep=4 / cplxblur=20.0 / qblur=0.5 / ip_ratio=1.40 / aq=1:1.00
Default : Yes
Forced : No

Audio
ID : 2
Format : AC-3
Format/Info : Audio Coding 3
Mode extension : CM (complete main)
Format settings, Endianness : Big
Codec ID : A_AC3
Duration : 59mn 22s
Bit rate mode : Constant
Bit rate : 448 Kbps
Channel(s) : 2 channels
Channel positions : Front: L R
Sampling rate : 48.0 KHz
Bit depth : 16 bits
Compression mode : Lossy
Stream size : 190 MiB (10%)
Default : Yes
Forced : No
Скриншоты видео
2012 Paul Kuhn & Band - Live at 33. Leverkusener Jazztage [HDTV 720p] 02012 Paul Kuhn & Band - Live at 33. Leverkusener Jazztage [HDTV 720p] 12012 Paul Kuhn & Band - Live at 33. Leverkusener Jazztage [HDTV 720p] 22012 Paul Kuhn & Band - Live at 33. Leverkusener Jazztage [HDTV 720p] 3
Any questions - support@pro-jazz.com.
Есть вопросы - support@pro-jazz.com
274
Нет комментариев. Ваш будет первым!