Поиск

2015 Brian Brown Trio - Live Au Upstairs [HDTV 1080i]

2015 Brian Brown Trio - Live Au Upstairs [HDTV 1080i]
Стиль:
Дата проведения концерта (записи):
18 апреля 2015
Место проведения:
Upstairs, Montreal
Главы (разбивка по трекам):
нет
Качество:
HDTV
Контейнер:
MP4
Треклист:

01. Poinciana
02. How High The Moon
03. Girl Talk
04. Drown In My Own Tears
05. Happy Little Mother
06. Skating In The Central Park
07. Sugar Ray
08. Wollow Weep For Me
09. Django
10. Standart

Состав:
  • pianist Brian Brown
  • bassist Michael Donato
  • drummer Al bourgeois
Видео:
AVC (h.264) / 1920x1080 / interlaced / 16:9 / 3 965 Кбит / 25.00 fps
Аудио#1:
AAC LC / VBR / 256kbps / 48kHz / 2ch stereo
Описание:

Брайан Браун — живая легенда канадского джаза. Он достиг международного признания в начале 60-х годов вместе с Эрролом Гарнером, Биллом Эвансом и Мэриан МакПартланд.

Ученик Оскара Питерсона, он также испытал влияние Билла Эванса, Арта Тейтума и Рэя Чарльза. Он создал свой собственный стиль, сочетая блюз и свинг.

На этом частном концерте в известном монреальском клубе Upstairs прозвучит классика в безупречном исполнении Брауна, басиста Майкла Донато и барабанщика Эла Буржуа.

Отчёт DVDInfo/MediaInfo/BDInfo
Общее
Полное имя : \\NASF8F4EB\Dev1Partition5\B\Brian Brown\2015 Brian Brown Trio - Live Au Upstairs [HDTV 1080i].mp4
Формат : MPEG-4
Профиль формата : Base Media
Идентификатор кодека : isom (isom/iso2/avc1/mp41)
Размер файла : 1,83 Гбайт
Продолжительность : 1 ч. 1 м.
Общий поток : 4 232 Кбит/сек
Программа кодирования : VideoReDo (Lavf57.71.100)

Видео
Идентификатор : 1
Формат : AVC
Формат/Информация : Advanced Video Codec
Профиль формата : High@L4
Настройки формата : CABAC / 4 Ref Frames
Параметр CABAC формата : Да
Параметр RefFrames формата : 4 кадра
Параметр GOP формата : M=4, N=28
Идентификатор кодека : avc1
Идентификатор кодека/Информация : Advanced Video Coding
Продолжительность : 1 ч. 1 м.
Битрейт : 3 965 Кбит/сек
Ширина : 1 920 пикселей
Высота : 1 080 пикселей
Соотношение сторон : 16:9
Режим частоты кадров : Постоянный
Частота кадров : 50,000 кадров/сек
Частота кадров в оригинале : 25,000 кадров/сек
Стандарт вещания : Component
Цветовое пространство : YUV
Субдискретизация насыщенности : 4:2:0
Битовая глубина : 8 бит
Тип развёртки : Чересстрочная
Метод сохранения типа развёртки : Раздельные поля
Порядок развёртки : Верхнее поле первое
Бит/(Пиксели*Кадры) : 0.038
Размер потока : 1,71 Гбайт (94%)
Цветовой диапазон : Limited
Основные цвета : BT.709
Характеристики трансфера : BT.709
Коэффициенты матрицы : BT.709
Menus : 3
Codec configuration box : avcC

Аудио
Идентификатор : 2
Формат : MPEG Audio
Версия формата : Version 1
Профиль формата : Layer 2
Идентификатор кодека : mp4a-6B
Продолжительность : 1 ч. 1 м.
Duration_LastFrame : -24 мс.
Вид битрейта : Постоянный
Битрейт : 256 Кбит/сек
Каналы : 2 канала
Частота : 48,0 КГц
Метод сжатия : С потерями
Размер потока : 113 Мбайт (6%)
Язык : English
Default : Да
Alternate group : 1
Menus : 3

Меню #1
Идентификатор : 3
Формат : txet
Идентификатор кодека : txet
Продолжительность : 1 ч. 1 м.
Язык : English
Menu For : 1,2
Duration_LastFrame : -188680

Меню #2
00:00:00.000 : Chapter 1
00:05:00.000 : Chapter 2
00:10:00.000 : Chapter 3
00:15:00.000 : Chapter 4
00:20:00.000 : Chapter 5
00:25:00.000 : Chapter 6
00:30:00.000 : Chapter 7
00:35:00.000 : Chapter 8
00:40:00.000 : Chapter 9
00:45:00.000 : Chapter 10
00:50:00.000 : Chapter 11
00:55:00.000 : Chapter 12
01:00:00.000 : Chapter 13
Any questions - projazzclub@gmail.com
457
Нет комментариев. Ваш будет первым!