Вы используете незарегистрированную версию компонента "Вкладки"!

Поиск

2015 Roy Ayers - At Worldwide Festival [SD]

2015 Roy Ayers - At Worldwide Festival [SD]
Качество:
SATRip
Контейнер:
TS
Видео:
MPEG-TS, 704*576 (16:9), 1915kbps, 25fps
Аудио#1:
MPEG2, 256kbps, 48kHz, 2ch
Источник:
собственная запись
Отчёт DVDInfo/MediaInfo/BDInfo
Общее
Идентификатор : 1 (0x1)
Полное имя : \\Roy Ayers\2015 Roy Ayers - At Worldwide Festival\2015 Roy Ayers - At Worldwide Festival.ts
Формат : MPEG-TS
Размер файла : 739 Мбайт
Продолжительность : 45 м. 8 с.
Режим общего битрейта : Переменный
Общий поток : 2287 Кбит/сек

Видео
Идентификатор : 226 (0xE2)
Идентификатор меню : 19126 (0x4AB6)
Формат : AVC
Формат/Информация : Advanced Video Codec
Профиль формата : High@L3
Настройки формата : CABAC / 4 Ref Frames
Параметр CABAC формата : Да
Параметр RefFrames формата : 4 кадра
Идентификатор кодека : 27
Продолжительность : 45 м. 8 с.
Битрейт : 1915 Кбит/сек
Ширина : 704 пикселя
Высота : 576 пикселей
Соотношение сторон : 16:9
Частота кадров : 25,000 кадров/сек
Стандарт вещания : Component
Цветовое пространство : YUV
Субдискретизация насыщенности : 4:2:0
Битовая глубина : 8 бит
Тип развёртки : Чересстрочная
Метод сохранения типа развёртки : Раздельные поля
Порядок развёртки : Верхнее поле первое
Бит/(Пиксели*Кадры) : 0.189
Размер потока : 619 Мбайт (84%)
Цветовой диапазон : Limited

Аудио
Идентификатор : 326 (0x146)
Идентификатор меню : 19126 (0x4AB6)
Формат : MPEG Audio
Версия формата : Version 1
Профиль формата : Layer 2
Идентификатор кодека : 3
Продолжительность : 45 м. 8 с.
Вид битрейта : Постоянный
Битрейт : 256 Кбит/сек
Каналы : 2 канала
Частота : 48,0 КГц
Частота кадров : 41,667 кадра/сек (1152 SPF)
Метод сжатия : С потерями
Размер потока : 82,7 Мбайт (11%)
Язык : French
Any questions - support@pro-jazz.com. Есть вопросы - support@pro-jazz.com
911
Нет комментариев. Ваш будет первым!