Вы используете незарегистрированную версию компонента "Вкладки"!

Поиск

2016 Maceo Parker - at the Bielska Zadymka Jazzowa [WEBDL 720p]

2016 Maceo Parker - at the Bielska Zadymka Jazzowa [WEBDL 720p]
Стиль:
Дата проведения концерта (записи):
4 марта 2016
Место проведения:
Lotos Jazz Festival, Club Klimat Bielsko-Bala, 18. Bielska Zadymka Jazzowa, Poland
Время звучания:
00:18:10
Главы (разбивка по трекам):
нет
Качество:
Web-DL
Состав:
  • Maceo Parker - alto sax
  • Greg Boyer - trombone
  • Will Boulware - key
  • Bruno Speight - guitar
  • Rodney "Skeet" Curtis - bass guitar
  • Nikki Glaspie - drums
  • Martha High - voc
  • Darliene Parker - voc

TV production : Giuseppe De Vecchi

Recorded at Club Klimat Bielsko-Bala
Country : France, Poland

Видео:
AVC,1280*720p (16:9), 2228kbps, 25fps
Аудио#1:
AAC, 125-231kbps, 48 kHz, 2 ch
Отчёт DVDInfo/MediaInfo/BDInfo
Общее
Полное имя : \\Maceo Parker\2016 Maceo Parker at Bielska Zadymka Jazzowa (Original)1280x720.mp4
Формат : MPEG-4
Профиль формата : Base Media / Version 2
Идентификатор кодека : mp42 (isom/mp42)
Размер файла : 306 Мбайт
Продолжительность : 18 м. 10 с.
Режим общего битрейта : Переменный
Общий поток : 2358 Кбит/сек
Дата кодирования : UTC 2017-03-07 13:10:36
Дата пометки : UTC 2017-03-07 13:10:36

Видео
Идентификатор : 1
Формат : AVC
Формат/Информация : Advanced Video Codec
Профиль формата : Main@L3.1
Настройки формата : CABAC / 3 Ref Frames
Параметр CABAC формата : Да
Параметр RefFrames формата : 3 кадра
Идентификатор кодека : avc1
Идентификатор кодека/Информация : Advanced Video Coding
Продолжительность : 18 м. 10 с.
Битрейт : 2228 Кбит/сек
Ширина : 1280 пикселей
Высота : 720 пикселей
Соотношение сторон : 16:9
Режим частоты кадров : Постоянный
Частота кадров : 25,000 кадров/сек
Стандарт вещания : PAL
Цветовое пространство : YUV
Субдискретизация насыщенности : 4:2:0
Битовая глубина : 8 бит
Тип развёртки : Прогрессивная
Бит/(Пиксели*Кадры) : 0.097
Размер потока : 290 Мбайт (95%)
Дата кодирования : UTC 2017-03-07 13:10:36
Дата пометки : UTC 2017-03-07 13:10:36
Цветовой диапазон : Limited
Codec configuration box : avcC

Аудио
Идентификатор : 2
Формат : AAC LC
Формат/Информация : Advanced Audio Codec Low Complexity
Идентификатор кодека : mp4a-40-2
Продолжительность : 18 м. 10 с.
Вид битрейта : Переменный
Битрейт : 125 Кбит/сек
Максимальный битрейт : 231 Кбит/сек
Каналы : 2 канала
Channel layout : L R
Частота : 48,0 КГц
Частота кадров : 46,875 кадров/сек (1024 SPF)
Метод сжатия : С потерями
Размер потока : 16,3 Мбайт (5%)
Дата кодирования : UTC 2017-03-07 13:10:36
Дата пометки : UTC 2017-03-07 13:10:36
Any questions - support@pro-jazz.com.
Есть вопросы - support@pro-jazz.com
346
Нет комментариев. Ваш будет первым!