Вы используете незарегистрированную версию компонента "Вкладки"!

Поиск

2018 Michael Wollny Trio & Norwegian Wind Ensemble - WDR 3 Jazzfest [HDTV 720p]

2018 Michael Wollny Trio & Norwegian Wind Ensemble - WDR 3 Jazzfest [HDTV 720p]
Дата проведения концерта (записи):
3 февраля 2018
Место проведения:
Theatersaal, Gütersloh, Germany
Время звучания:
01:09:00
Главы (разбивка по трекам):
нет
Качество:
HDTV
Состав:
  • Michael Wollny Piano
  • Christian Weber Bass
  • Eric Schaefer Drums
  • Norwegian Wind Ensemble
Видео:
AVC,1280*720p (16:9), 2417kbps, 25fps
Аудио#1:
AAC, 125-268kbps, 48kHz, 2ch
Отчёт DVDInfo/MediaInfo/BDInfo
Общее
Полное имя : \\Michael Wollny\2018 Michael Wollny Trio & Norwegian Wind Ensemble - WDR 3 Jazzfest\2018 Michael Wollny Trio & Norwegian Wind Ensemble - WDR 3 Jazzfest.mp4
Формат : MPEG-4
Профиль формата : Base Media / Version 2
Идентификатор кодека : mp42 (isom/mp42)
Размер файла : 1,23 Гбайт
Продолжительность : 1 ч. 9 м.
Режим общего битрейта : Переменный
Общий поток : 2547 Кбит/сек
Дата кодирования : UTC 2018-02-08 11:36:15
Дата пометки : UTC 2018-02-08 11:36:15

Видео
Идентификатор : 1
Формат : AVC
Формат/Информация : Advanced Video Codec
Профиль формата : Main@L3.1
Настройки формата : CABAC / 3 Ref Frames
Параметр CABAC формата : Да
Параметр RefFrames формата : 3 кадра
Идентификатор кодека : avc1
Идентификатор кодека/Информация : Advanced Video Coding
Продолжительность : 1 ч. 9 м.
Битрейт : 2417 Кбит/сек
Ширина : 1280 пикселей
Высота : 720 пикселей
Соотношение сторон : 16:9
Режим частоты кадров : Постоянный
Частота кадров : 25,000 кадров/сек
Стандарт вещания : PAL
Цветовое пространство : YUV
Субдискретизация насыщенности : 4:2:0
Битовая глубина : 8 бит
Тип развёртки : Прогрессивная
Бит/(Пиксели*Кадры) : 0.105
Размер потока : 1,17 Гбайт (95%)
Дата кодирования : UTC 2018-02-08 11:36:16
Дата пометки : UTC 2018-02-08 11:36:16
Цветовой диапазон : Limited
Codec configuration box : avcC

Аудио
Идентификатор : 2
Формат : AAC LC
Формат/Информация : Advanced Audio Codec Low Complexity
Идентификатор кодека : mp4a-40-2
Продолжительность : 1 ч. 9 м.
Вид битрейта : Переменный
Битрейт : 125 Кбит/сек
Максимальный битрейт : 268 Кбит/сек
Каналы : 2 канала
Channel layout : L R
Частота : 48,0 КГц
Частота кадров : 46,875 кадров/сек (1024 SPF)
Метод сжатия : С потерями
Размер потока : 62,1 Мбайт (5%)
Дата кодирования : UTC 2018-02-08 11:36:16
Дата пометки : UTC 2018-02-08 11:36:16
Any questions - support@pro-jazz.com.
Есть вопросы - support@pro-jazz.com
252
Нет комментариев. Ваш будет первым!