Поиск

2018 R+R=Now - at Jazz A Vienne Fest [HDTV 1080i]

2018 R+R=Now - at Jazz A Vienne Fest [HDTV 1080i]
Дата проведения концерта (записи):
4 июля 2018
Место проведения:
Vienne
Время звучания:
01:00:26
Главы (разбивка по трекам):
нет
Качество:
HDTV
Состав:
  • Robert Glasper - Claviers, Rhodes I Keys, Rhodes ,
  • Christian Scott - Trompette I Trumpet
  • Terrace Martin - Vocoder, Saxophone I Vocoder, Sax '
  • Taylor McFerrin - Rythmiques, Synthés I Beats, SynthS
  • Derrick Hodge - Basse I Bass
  • Justin Tyson - Batterie I Drums
Видео:
AVC,1920*1080i (16:9), 5184kbps, 25fps
Аудио#1:
AAC LC, 256kbps, 48kHz, 2ch
Отчёт DVDInfo/MediaInfo/BDInfo
Общее
Полное имя : \\2018 R+R=Now - at Jazz A Vienne Fest [HDTV 1080i].mp4
Формат : MPEG-4
Профиль формата : Base Media
Идентификатор кодека : isom (isom/iso2/avc1/mp41)
Размер файла : 2,30 Гбайт
Продолжительность : 1 ч. 0 м.
Режим общего битрейта : Переменный
Общий поток : 5451 Кбит/сек
Программа кодирования : VideoReDo (Lavf57.71.100)

Видео
Идентификатор : 1
Формат : AVC
Формат/Информация : Advanced Video Codec
Профиль формата : High@L4
Настройки формата : CABAC / 4 Ref Frames
Параметр CABAC формата : Да
Параметр RefFrames формата : 4 кадра
Идентификатор кодека : avc1
Идентификатор кодека/Информация : Advanced Video Coding
Продолжительность : 1 ч. 0 м.
Битрейт : 5184 Кбит/сек
Ширина : 1920 пикселей
Высота : 1080 пикселей
Соотношение сторон : 16:9
Режим частоты кадров : Постоянный
Частота кадров : 50,000 кадров/сек
Частота кадров в оригинале : 25,000 кадров/сек
Стандарт вещания : Component
Цветовое пространство : YUV
Субдискретизация насыщенности : 4:2:0
Битовая глубина : 8 бит
Тип развёртки : Чересстрочная
Метод сохранения типа развёртки : Раздельные поля
Порядок развёртки : Верхнее поле первое
Бит/(Пиксели*Кадры) : 0.050
Размер потока : 2,19 Гбайт (95%)
Цветовой диапазон : Limited
Основные цвета : BT.709
Характеристики трансфера : BT.709
Коэффициенты матрицы : BT.709
Codec configuration box : avcC

Аудио
Идентификатор : 2
Формат : AAC LC
Формат/Информация : Advanced Audio Codec Low Complexity
Идентификатор кодека : mp4a-40-2
Продолжительность : 1 ч. 0 м.
Duration_LastFrame : -21 мс.
Вид битрейта : Переменный
Битрейт : 253 Кбит/сек
Максимальный битрейт : 256 Кбит/сек
Каналы : 2 канала
ChannelLayout : L R
Частота : 48,0 КГц
Частота кадров : 46,875 кадров/сек (1024 SPF)
Метод сжатия : С потерями
Размер потока : 110 Мбайт (5%)
Язык : Russian
Default : Да
AlternateGroup/String : 1
Скриншоты видео
2018 R+R=Now - at Jazz A Vienne Fest [HDTV 1080i] 02018 R+R=Now - at Jazz A Vienne Fest [HDTV 1080i] 12018 R+R=Now - at Jazz A Vienne Fest [HDTV 1080i] 22018 R+R=Now - at Jazz A Vienne Fest [HDTV 1080i] 32018 R+R=Now - at Jazz A Vienne Fest [HDTV 1080i] 42018 R+R=Now - at Jazz A Vienne Fest [HDTV 1080i] 5
По всем вопросам пишите личное сообщение пользователю M0p94ok.
603
Нет комментариев. Ваш будет первым!