Вы используете незарегистрированную версию компонента "Вкладки"!

Поиск

2019 Marike van Dijk Quintet - At WDR 3 Jazzfest [HDTV 720p]

2019 Marike van Dijk Quintet - At WDR 3 Jazzfest [HDTV 720p]
Дата проведения концерта (записи):
2019
Место проведения:
WDR 3 Jazzfest, Theater Gutersloh, Germany
Время звучания:
00:58:38
Главы (разбивка по трекам):
нет
Состав:
  • Saxo : Marike van Dijk
  • Clarinette basse : Joris Roelofs
  • Piano : Franz von Chossy
  • Basse : Mark Schilders
  • Percussions Ruben Samama
Видео:
AVC,1280*720p (16:9), 2326kbps, 25fps
Аудио#1:
AAC, 125-155kbps, 48kHz, 2ch
Отчёт DVDInfo/MediaInfo/BDInfo
Общее
Полное имя : \\NASF8F4EB\Videos\HD Video\Marike van Dijk\2019 Marike van Dijk Quintet - At WDR 3 Jazzfest [HDTVRip 720p]\2019 Marike van Dijk Quintet - At WDR 3 Jazzfest [HDTVRip 720p].mp4
Формат : MPEG-4
Профиль формата : Base Media / Version 2
Идентификатор кодека : mp42 (isom/mp42)
Размер файла : 1,01 Гбайт
Продолжительность : 58 м. 38 с.
Режим общего битрейта : Переменный
Общий поток : 2455 Кбит/сек
Дата кодирования : UTC 2019-02-08 09:47:45
Дата пометки : UTC 2019-02-08 09:47:45

Видео
Идентификатор : 1
Формат : AVC
Формат/Информация : Advanced Video Codec
Профиль формата : Main@L3.1
Настройки формата : CABAC / 3 Ref Frames
Параметр CABAC формата : Да
Параметр RefFrames формата : 3 кадра
Параметр GOP формата : M=4, N=33
Идентификатор кодека : avc1
Идентификатор кодека/Информация : Advanced Video Coding
Продолжительность : 58 м. 38 с.
Битрейт : 2326 Кбит/сек
Ширина : 1280 пикселей
Высота : 720 пикселей
Соотношение сторон : 16:9
Режим частоты кадров : Постоянный
Частота кадров : 25,000 кадров/сек
Стандарт вещания : PAL
Цветовое пространство : YUV
Субдискретизация насыщенности : 4:2:0
Битовая глубина : 8 бит
Тип развёртки : Прогрессивная
Бит/(Пиксели*Кадры) : 0.101
Размер потока : 976 Мбайт (95%)
Дата кодирования : UTC 2019-02-08 09:47:46
Дата пометки : UTC 2019-02-08 09:47:46
Цветовой диапазон : Limited
Codec configuration box : avcC

Аудио
Идентификатор : 2
Формат : AAC LC
Формат/Информация : Advanced Audio Codec Low Complexity
Идентификатор кодека : mp4a-40-2
Продолжительность : 58 м. 38 с.
Вид битрейта : Переменный
Битрейт : 125 Кбит/сек
Максимальный битрейт : 155 Кбит/сек
Каналы : 2 канала
Channel layout : L R
Частота : 48,0 КГц
Частота кадров : 46,875 кадров/сек (1024 SPF)
Метод сжатия : С потерями
Размер потока : 52,6 Мбайт (5%)
Дата кодирования : UTC 2019-02-08 09:47:46
Дата пометки : UTC 2019-02-08 09:47:46
Any questions - support@pro-jazz.com.
Есть вопросы - support@pro-jazz.com
240
Нет комментариев. Ваш будет первым!