Вы используете незарегистрированную версию компонента "Вкладки"!

Поиск

2019 Randy Brecker & The Cologne Funkateers - WDR 3 Jazzfest [WEBDL 720p]

2019 Randy Brecker & The Cologne Funkateers - WDR 3 Jazzfest [WEBDL 720p]
Дата проведения концерта (записи):
02 февраля 2019
Место проведения:
WDR 3 Jazzfest, Theater Gutersloh
Время звучания:
01:07:38
Главы (разбивка по трекам):
нет
Состав:
  • Randy Brecker (Trompete)
  • Ada Rovatti (Tenorsaxofon)
  • Jesse Milliner (Keyboards)
  • Bruno Müller (Gitarre)
  • Stefan Rademacher (E-Bass)
  • Hendrik Smock (Drums)
Видео:
AVC,1280*720p (16:9), 2212kbps, 25fps
Аудио#1:
AAC, 125-150kbps, 48kHz, 2ch
Отчёт DVDInfo/MediaInfo/BDInfo
Общее
Полное имя : \\Randy Brecker\2019 Randy Brecker & The Cologne Funkateers - WDR 3 Jazzfest\2019-02-08_Randy Brecker & The Cologne Funkateers - WDR 3 Jazzfest.mp4
Формат : MPEG-4
Профиль формата : Base Media / Version 2
Идентификатор кодека : mp42 (isom/mp42)
Размер файла : 1,11 Гбайт
Продолжительность : 1 ч. 7 м.
Режим общего битрейта : Переменный
Общий поток : 2341 Кбит/сек
Дата кодирования : UTC 2019-02-08 09:46:39
Дата пометки : UTC 2019-02-08 09:46:39

Видео
Идентификатор : 1
Формат : AVC
Формат/Информация : Advanced Video Codec
Профиль формата : Main@L3.1
Настройки формата : CABAC / 3 Ref Frames
Параметр CABAC формата : Да
Параметр RefFrames формата : 3 кадра
Идентификатор кодека : avc1
Идентификатор кодека/Информация : Advanced Video Coding
Продолжительность : 1 ч. 7 м.
Битрейт : 2212 Кбит/сек
Ширина : 1280 пикселей
Высота : 720 пикселей
Соотношение сторон : 16:9
Режим частоты кадров : Постоянный
Частота кадров : 25,000 кадров/сек
Стандарт вещания : PAL
Цветовое пространство : YUV
Субдискретизация насыщенности : 4:2:0
Битовая глубина : 8 бит
Тип развёртки : Прогрессивная
Бит/(Пиксели*Кадры) : 0.096
Размер потока : 1,04 Гбайт (94%)
Дата кодирования : UTC 2019-02-08 09:46:40
Дата пометки : UTC 2019-02-08 09:46:40
Цветовой диапазон : Limited
Codec configuration box : avcC

Аудио
Идентификатор : 2
Формат : AAC LC
Формат/Информация : Advanced Audio Codec Low Complexity
Идентификатор кодека : mp4a-40-2
Продолжительность : 1 ч. 7 м.
Вид битрейта : Переменный
Битрейт : 125 Кбит/сек
Максимальный битрейт : 150 Кбит/сек
Каналы : 2 канала
Channel layout : L R
Частота : 48,0 КГц
Частота кадров : 46,875 кадров/сек (1024 SPF)
Метод сжатия : С потерями
Размер потока : 60,7 Мбайт (5%)
Дата кодирования : UTC 2019-02-08 09:46:40
Дата пометки : UTC 2019-02-08 09:46:40
Any questions - support@pro-jazz.com.
Есть вопросы - support@pro-jazz.com
333
Нет комментариев. Ваш будет первым!