Поиск

2022 Nils Landgren Funk Unit - at Elbjazz Fest [WEBDL 720p]

2022 Nils Landgren Funk Unit - at Elbjazz Fest [WEBDL 720p]
Стиль:
Дата проведения концерта (записи):
6 июня 2022
Главы (разбивка по трекам):
нет
Качество:
WEB-DL
Контейнер:
MP4
Состав:
  • Nils Landgren - trombone
Видео:
AVC (h.264) / 1280*720p / 16x9 / 2 200kbps / 25fps
Аудио#1:
AAC LC / 256kbps / 48kHz / 2ch stereo
Описание:

С помощью своего немецкого лейбла ACT тромбонист продал более миллиона записей с самыми разными группами. Но самый известный джазовый музыкант Швеции не только успешен, но и очень симпатичен. Благодаря своему спокойствию, доброму юмору и безупречному немецкому языку Нильс Ландгрен завоевал большую аудиторию в Германии. Не говоря уже о его музыке — и какая это музыка! Тех, кто думал, что для того, чтобы играть музыку афро-американского происхождения на таком уровне, нужно быть сделанным из того же дерева, что и Tower of Power, ждет сюрприз. На протяжении почти 30 лет фанк-группа Нильса Ландгрена демонстрирует в Европе, казалось бы, невозможное: смешивает старомодный фанк с изысканным соулом. В этом году секстет и его вдохновенные композиции еще раз докажут: "Mr Red Horn" и его музыканты вечны — чтобы не сказать несокрушимы!

Отчёт DVDInfo/MediaInfo/BDInfo
Общее
Полное имя : \\Nils Landgren\2022 Nils Landgren Funk Unit - at Elbjazz Fest [WEBDL 720p].mp4
Формат : MPEG-4
Профиль формата : Base Media
Идентификатор кодека : isom (isom/iso2/avc1/mp41)
Размер файла : 1,55 Гбайт
Продолжительность : 1 ч. 30 м.
Режим общего битрейта : Переменный
Общий поток : 2 455 Кбит/сек
Программа кодирования : VideoReDo (Lavf58.29.100)

Видео
Идентификатор : 1
Формат : AVC
Формат/Информация : Advanced Video Codec
Профиль формата : Main@L3.1
Настройки формата : CABAC / 3 Ref Frames
Параметр CABAC формата : Да
Параметр RefFrames формата : 3 кадра
Идентификатор кодека : avc1
Идентификатор кодека/Информация : Advanced Video Coding
Продолжительность : 1 ч. 30 м.
Вид битрейта : Переменный
Битрейт : 2 200 Кбит/сек
Ширина : 1 280 пикселей
Высота : 720 пикселей
Соотношение сторон : 16:9
Режим частоты кадров : Постоянный
Частота кадров : 25,000 кадров/сек
Стандарт вещания : PAL
Цветовое пространство : YUV
Субдискретизация насыщенности : 4:2:0
Битовая глубина : 8 бит
Тип развёртки : Прогрессивная
Бит/(Пиксели*Кадры) : 0.095
Размер потока : 1,38 Гбайт (89%)
Цветовой диапазон : Limited
Основные цвета : BT.709
Характеристики трансфера : BT.709
Коэффициенты матрицы : BT.709
Menus : 3
Codec configuration box : avcC

Аудио
Идентификатор : 2
Формат : AAC LC
Формат/Информация : Advanced Audio Codec Low Complexity
Идентификатор кодека : mp4a-40-2
Продолжительность : 1 ч. 30 м.
Duration_LastFrame : -21 мс.
Вид битрейта : Переменный
Битрейт : 253 Кбит/сек
Максимальный битрейт : 256 Кбит/сек
Каналы : 2 канала
Channel layout : L R
Частота : 48,0 КГц
Частота кадров : 46,875 кадров/сек (1024 SPF)
Метод сжатия : С потерями
Размер потока : 164 Мбайт (10%)
Default : Да
Alternate group : 1
Menus : 3

Меню #1
Идентификатор : 3
Формат : txet
Идентификатор кодека : txet
Продолжительность : 1 ч. 30 м.
Язык : English
Menu For : 1,2
Duration_LastFrame : -280000

Меню #2
00:00:00.000 : Chapter 1
00:05:00.000 : Chapter 2
00:10:00.000 : Chapter 3
00:15:00.000 : Chapter 4
00:20:00.000 : Chapter 5
00:25:00.000 : Chapter 6
00:30:00.000 : Chapter 7
00:35:00.000 : Chapter 8
00:40:00.000 : Chapter 9
00:45:00.000 : Chapter 10
00:50:00.000 : Chapter 11
00:55:00.000 : Chapter 12
01:00:00.000 : Chapter 13
01:05:00.000 : Chapter 14
01:10:00.000 : Chapter 15
01:15:00.000 : Chapter 16
01:20:00.000 : Chapter 17
01:25:00.000 : Chapter 18
01:30:00.000 : Chapter 19
По всем вопросам пишите личное сообщение пользователю M0p94ok.
182
Нет комментариев. Ваш будет первым!