Вы используете незарегистрированную версию компонента "Вкладки"!

Поиск

2010 Roger Cicero - Live at Montreux [Blu-ray]

2010 Roger Cicero - Live at Montreux [Blu-ray]
Описание:

Год выпуска: 2010
Жанр: Smooth Jazz
Продолжительность: 01:37:20

Качество: Blu-ray
Формат: BDMV
Видео кодек: MPEG-4 AVC
Аудио кодек: DTS, AC3, PCM
Видео: 1920x1080i, MPEG-4 AVC, 29,970 fps, ~19999 Kbps
Аудио №1: DTS-HD MA 5.1 (48 kHz / 2976 kbps / 16-bit)
Аудио №2: Dolby Digital 5.1 (48 kHz / 448 kbps)
Аудио №3: LPCM 2.0 (48 kHz / 1536 kbps / 16-bit)

Отчёт DVDInfo/MediaInfo/BDInfo
Disc Title: Roger Cicero - Live At Montreux 2010
Disc Size: 22 451 326 340 bytes
Protection: AACS
BD-Java: No
BDInfo: 0.5.6

Notes:

BDINFO HOME:
Cinema Squid
http://www.cinemasquid.com/blu-ray/tools/bdinfo

INCLUDES FORUMS REPORT FOR:
AVS Forum Blu-ray Audio and Video Specifications Thread
http://www.avsforum.com/avs-vb/showthread.php?t=1155731

********************
PLAYLIST: 00002.MPLS
********************

<--- BEGIN FORUMS PASTE --->
Код:
Total Video
Title Codec Length Movie Size Disc Size Bitrate Bitrate Main Audio Track Secondary Audio Track
----- ------ ------- -------------- -------------- ------- ------- ------------------ ---------------------
00002.MPLS AVC 1:37:20 19 445 925 888 22 451 326 340 26,64 20,00 DTS-HD Master 5.1 2976Kbps (48kHz/16-bit) DD AC3 5.1 448Kbps
Код:
DISC INFO:

Disc Title: Roger Cicero - Live At Montreux 2010
Disc Size: 22 451 326 340 bytes
Protection: AACS
BD-Java: No
BDInfo: 0.5.6

PLAYLIST REPORT:

Name: 00002.MPLS
Length: 1:37:20 (h:m:s)
Size: 19 445 925 888 bytes
Total Bitrate: 26,64 Mbps

VIDEO:

Codec Bitrate Description
----- ------- -----------
MPEG-4 AVC Video 19999 kbps 1080i / 29,970 fps / 16:9 / High Profile 4.1

AUDIO:

Codec Language Bitrate Description
----- -------- ------- -----------
DTS-HD Master Audio English 2976 kbps 5.1 / 48 kHz / 2976 kbps / 16-bit (DTS Core: 5.1 / 48 kHz / 1509 kbps / 16-bit)
Dolby Digital Audio English 448 kbps 5.1 / 48 kHz / 448 kbps / DN -4dB
LPCM Audio English 1536 kbps 2.0 / 48 kHz / 1536 kbps / 16-bit

FILES:

Name Time In Length Size Total Bitrate
---- ------- ------ ---- -------------
00002.M2TS 0:00:00.000 1:37:20.000 19 445 925 888 26 638

CHAPTERS:

Number Time In Length Avg Video Rate Max 1-Sec Rate Max 1-Sec Time Max 5-Sec Rate Max 5-Sec Time Max 10Sec Rate Max 10Sec Time Avg Frame Size Max Frame Size Max Frame Time
------ ------- ------ -------------- -------------- -------------- -------------- -------------- -------------- -------------- -------------- -------------- --------------
1 0:00:00.000 0:03:26.573 20 079 kbps 33 251 kbps 00:02:37.924 30 198 kbps 00:02:36.356 27 694 kbps 00:02:31.584 83 734 bytes 322 069 bytes 00:03:05.919
2 0:03:26.573 0:00:23.790 23 995 kbps 33 361 kbps 00:03:41.821 30 290 kbps 00:03:39.118 29 647 kbps 00:03:33.213 100 078 bytes 322 822 bytes 00:03:38.117
3 0:03:50.363 0:03:03.983 23 282 kbps 36 389 kbps 00:06:43.069 32 773 kbps 00:06:40.733 29 344 kbps 00:06:40.166 97 107 bytes 337 385 bytes 00:06:45.238
4 0:06:54.347 0:05:04.337 19 048 kbps 35 258 kbps 00:08:33.412 28 938 kbps 00:08:30.576 26 499 kbps 00:08:28.674 79 447 bytes 315 287 bytes 00:08:34.347
5 0:11:58.684 0:04:19.292 18 917 kbps 28 713 kbps 00:15:41.173 23 809 kbps 00:14:59.031 23 044 kbps 00:14:56.161 78 900 bytes 292 379 bytes 00:14:50.956
6 0:16:17.977 0:07:55.007 20 464 kbps 32 796 kbps 00:21:35.093 28 560 kbps 00:21:33.292 26 276 kbps 00:20:02.134 85 352 bytes 334 305 bytes 00:19:31.403
7 0:24:12.984 0:05:31.998 21 363 kbps 35 777 kbps 00:26:35.994 29 299 kbps 00:25:20.819 26 608 kbps 00:28:04.649 89 100 bytes 320 459 bytes 00:24:44.916
8 0:29:44.983 0:04:12.185 18 185 kbps 33 721 kbps 00:31:54.812 27 634 kbps 00:31:50.775 23 484 kbps 00:31:45.904 75 847 bytes 283 085 bytes 00:32:25.843
9 0:33:57.168 0:04:44.817 17 302 kbps 26 787 kbps 00:34:48.419 22 859 kbps 00:34:19.657 22 485 kbps 00:34:18.423 72 163 bytes 262 284 bytes 00:35:19.083
10 0:38:41.986 0:03:54.033 22 701 kbps 36 251 kbps 00:41:08.899 34 426 kbps 00:41:05.429 33 840 kbps 00:41:00.424 94 682 bytes 334 485 bytes 00:42:09.159
11 0:42:36.020 0:04:58.965 18 036 kbps 28 548 kbps 00:46:38.629 23 783 kbps 00:46:35.259 22 047 kbps 00:45:02.533 75 225 bytes 280 817 bytes 00:42:42.960
12 0:47:34.985 0:04:22.061 19 679 kbps 36 297 kbps 00:51:09.766 32 771 kbps 00:51:09.766 30 518 kbps 00:51:06.430 82 078 bytes 328 019 bytes 00:48:18.762
13 0:51:57.047 0:03:28.942 20 244 kbps 35 525 kbps 00:53:44.254 30 492 kbps 00:53:41.851 26 474 kbps 00:53:36.846 84 436 bytes 325 850 bytes 00:54:25.028
14 0:55:25.989 0:05:36.002 23 152 kbps 35 486 kbps 00:58:06.015 32 578 kbps 00:58:15.725 29 930 kbps 00:58:11.087 96 562 bytes 325 635 bytes 00:57:47.597
15 1:01:01.991 0:04:39.012 20 399 kbps 34 675 kbps 01:03:47.056 29 618 kbps 01:03:43.052 25 608 kbps 01:03:41.851 85 080 bytes 328 932 bytes 01:04:12.648
16 1:05:41.003 0:03:47.961 21 745 kbps 35 067 kbps 01:08:05.781 31 188 kbps 01:08:03.012 27 501 kbps 01:08:58.868 90 695 bytes 333 131 bytes 01:07:23.606
17 1:09:28.964 0:13:46.025 20 596 kbps 35 683 kbps 01:19:26.261 33 700 kbps 01:19:17.018 33 537 kbps 01:19:13.815 85 904 bytes 337 299 bytes 01:15:07.703
18 1:23:14.990 0:06:38.998 18 301 kbps 33 485 kbps 01:29:11.012 30 057 kbps 01:28:33.975 24 998 kbps 01:28:29.937 76 331 bytes 328 676 bytes 01:28:19.160
19 1:29:53.988 0:07:25.011 17 822 kbps 35 199 kbps 01:32:17.732 33 564 kbps 01:32:13.728 28 437 kbps 01:32:10.057 74 333 bytes 328 605 bytes 01:32:14.328
20 1:37:18.999 0:00:01.001 96 kbps 0 kbps 00:00:00.000 0 kbps 00:00:00.000 0 kbps 00:00:00.000 416 bytes 1 468 bytes 01:37:19.433

STREAM DIAGNOSTICS:

File PID Type Codec Language Seconds Bitrate Bytes Packets
---- --- ---- ----- -------- -------------- -------------- ------------- -----
00002.M2TS 4113 (0x1011) 0x1B AVC 5839,934 20 000 14 599 617 417 79 535 489
00002.M2TS 4352 (0x1100) 0x80 LPCM eng (English) 5839,934 1 542 1 125 952 964 7 008 006
00002.M2TS 4353 (0x1101) 0x81 AC3 eng (English) 5839,934 448 327 041 792 1 825 010
00002.M2TS 4354 (0x1102) 0x86 DTS-HD MA eng (English) 5839,934 2 976 2 172 483 680 12 716 694
<---- END FORUMS PASTE ---->

QUICK SUMMARY:

Disc Title: Roger Cicero - Live At Montreux 2010
Disc Size: 22 451 326 340 bytes
Protection: AACS
BD-Java: No
Playlist: 00002.MPLS
Size: 19 445 925 888 bytes
Length: 1:37:20
Total Bitrate: 26,64 Mbps
Video: MPEG-4 AVC Video / 19999 kbps / 1080i / 29,970 fps / 16:9 / High Profile 4.1
Audio: English / DTS-HD Master Audio / 5.1 / 48 kHz / 2976 kbps / 16-bit (DTS Core: 5.1 / 48 kHz / 1509 kbps / 16-bit)
Audio: English / Dolby Digital Audio / 5.1 / 48 kHz / 448 kbps / DN -4dB
Audio: English / LPCM Audio / 2.0 / 48 kHz / 1536 kbps / 16-bit

********************
PLAYLIST: 00006.MPLS
********************

<--- BEGIN FORUMS PASTE --->
Код:
Total Video
Title Codec Length Movie Size Disc Size Bitrate Bitrate Main Audio Track Secondary Audio Track
----- ------ ------- -------------- -------------- ------- ------- ------------------ ---------------------
00006.MPLS AVC 0:09:57 1 713 377 280 22 451 326 340 22,96 20,00 LPCM 2.0 1536Kbps (48kHz/16-bit)
Код:
DISC INFO:

Disc Title: Roger Cicero - Live At Montreux 2010
Disc Size: 22 451 326 340 bytes
Protection: AACS
BD-Java: No
BDInfo: 0.5.6

PLAYLIST REPORT:

Name: 00006.MPLS
Length: 0:09:57 (h:m:s)
Size: 1 713 377 280 bytes
Total Bitrate: 22,96 Mbps

VIDEO:

Codec Bitrate Description
----- ------- -----------
MPEG-4 AVC Video 19997 kbps 1080i / 29,970 fps / 16:9 / High Profile 4.1

AUDIO:

Codec Language Bitrate Description
----- -------- ------- -----------
LPCM Audio English 1536 kbps 2.0 / 48 kHz / 1536 kbps / 16-bit

SUBTITLES:

Codec Language Bitrate Description
----- -------- ------- -----------
Presentation Graphics English 61,544 kbps
Presentation Graphics German 75,070 kbps

FILES:

Name Time In Length Size Total Bitrate
---- ------- ------ ---- -------------
00010.M2TS 0:00:00.000 0:09:57.029 1 713 377 280 22 959

CHAPTERS:

Number Time In Length Avg Video Rate Max 1-Sec Rate Max 1-Sec Time Max 5-Sec Rate Max 5-Sec Time Max 10Sec Rate Max 10Sec Time Avg Frame Size Max Frame Size Max Frame Time
------ ------- ------ -------------- -------------- -------------- -------------- -------------- -------------- -------------- -------------- -------------- --------------
1 0:00:00.000 0:09:56.028 20 030 kbps 37 913 kbps 00:04:32.772 34 280 kbps 00:04:32.772 33 593 kbps 00:05:45.578 83 539 bytes 339 714 bytes 00:03:23.002
2 0:09:56.028 0:00:01.001 105 kbps 0 kbps 00:00:00.000 0 kbps 00:00:00.000 0 kbps 00:00:00.000 452 bytes 1 466 bytes 00:09:56.362

STREAM DIAGNOSTICS:

File PID Type Codec Language Seconds Bitrate Bytes Packets
---- --- ---- ----- -------- -------------- -------------- ------------- -----
00010.M2TS 4113 (0x1011) 0x1B AVC 596,963 19 999 1 492 353 693 8 130 035
00010.M2TS 4352 (0x1100) 0x80 LPCM eng (English) 596,963 1 543 115 107 384 716 436
00010.M2TS 4608 (0x1200) 0x90 PGS eng (English) 596,963 62 4 592 984 25 935
00010.M2TS 4609 (0x1201) 0x90 PGS deu (German) 596,963 75 5 602 353 31 429
<---- END FORUMS PASTE ---->

QUICK SUMMARY:

Disc Title: Roger Cicero - Live At Montreux 2010
Disc Size: 22 451 326 340 bytes
Protection: AACS
BD-Java: No
Playlist: 00006.MPLS
Size: 1 713 377 280 bytes
Length: 0:09:57
Total Bitrate: 22,96 Mbps
Video: MPEG-4 AVC Video / 19997 kbps / 1080i / 29,970 fps / 16:9 / High Profile 4.1
Audio: English / LPCM Audio / 2.0 / 48 kHz / 1536 kbps / 16-bit
Subtitle: English / 61,544 kbps
Subtitle: German / 75,070 kbps

********************
PLAYLIST: 00007.MPLS
********************

<--- BEGIN FORUMS PASTE --->
Код:
Total Video
Title Codec Length Movie Size Disc Size Bitrate Bitrate Main Audio Track Secondary Audio Track
----- ------ ------- -------------- -------------- ------- ------- ------------------ ---------------------
00007.MPLS AVC 0:02:18 395 900 928 22 451 326 340 22,94 19,99 LPCM 2.0 1536Kbps (48kHz/16-bit)
Код:
DISC INFO:

Disc Title: Roger Cicero - Live At Montreux 2010
Disc Size: 22 451 326 340 bytes
Protection: AACS
BD-Java: No
BDInfo: 0.5.6

PLAYLIST REPORT:

Name: 00007.MPLS
Length: 0:02:18 (h:m:s)
Size: 395 900 928 bytes
Total Bitrate: 22,94 Mbps

VIDEO:

Codec Bitrate Description
----- ------- -----------
MPEG-4 AVC Video 19986 kbps 1080i / 29,970 fps / 16:9 / High Profile 4.1

AUDIO:

Codec Language Bitrate Description
----- -------- ------- -----------
LPCM Audio English 1536 kbps 2.0 / 48 kHz / 1536 kbps / 16-bit

SUBTITLES:

Codec Language Bitrate Description
----- -------- ------- -----------
Presentation Graphics English 58,876 kbps
Presentation Graphics German 74,730 kbps

FILES:

Name Time In Length Size Total Bitrate
---- ------- ------ ---- -------------
00011.M2TS 0:00:00.000 0:02:18.037 395 900 928 22 944

CHAPTERS:

Number Time In Length Avg Video Rate Max 1-Sec Rate Max 1-Sec Time Max 5-Sec Rate Max 5-Sec Time Max 10Sec Rate Max 10Sec Time Avg Frame Size Max Frame Size Max Frame Time
------ ------- ------ -------------- -------------- -------------- -------------- -------------- -------------- -------------- -------------- -------------- --------------
1 0:00:00.000 0:02:17.036 20 131 kbps 30 092 kbps 00:00:14.114 27 563 kbps 00:00:20.387 26 901 kbps 00:00:13.646 83 941 bytes 325 435 bytes 00:00:23.423
2 0:02:17.036 0:00:01.001 143 kbps 0 kbps 00:00:00.000 0 kbps 00:00:00.000 0 kbps 00:00:00.000 616 bytes 2 581 bytes 00:02:18.004

STREAM DIAGNOSTICS:

File PID Type Codec Language Seconds Bitrate Bytes Packets
---- --- ---- ----- -------- -------------- -------------- ------------- -----
00011.M2TS 4113 (0x1011) 0x1B AVC 137,971 19 995 344 846 357 1 878 730
00011.M2TS 4352 (0x1100) 0x80 LPCM eng (English) 137,971 1 543 26 614 112 165 648
00011.M2TS 4608 (0x1200) 0x90 PGS eng (English) 137,971 59 1 015 898 5 739
00011.M2TS 4609 (0x1201) 0x90 PGS deu (German) 137,971 75 1 289 453 7 231
<---- END FORUMS PASTE ---->

QUICK SUMMARY:

Disc Title: Roger Cicero - Live At Montreux 2010
Disc Size: 22 451 326 340 bytes
Protection: AACS
BD-Java: No
Playlist: 00007.MPLS
Size: 395 900 928 bytes
Length: 0:02:18
Total Bitrate: 22,94 Mbps
Video: MPEG-4 AVC Video / 19986 kbps / 1080i / 29,970 fps / 16:9 / High Profile 4.1
Audio: English / LPCM Audio / 2.0 / 48 kHz / 1536 kbps / 16-bit
Subtitle: English / 58,876 kbps
Subtitle: German / 74,730 kbps
Any questions - support@pro-jazz.com. Есть вопросы - support@pro-jazz.com
368
Нет комментариев. Ваш будет первым!