Вы используете незарегистрированную версию компонента "Вкладки"!

Поиск

2012 Jane Zhang - Listen to Jane Z Live [Blu-ray]

2012 Jane Zhang - Listen to Jane Z Live [Blu-ray]
Треклист:

01. Opening 2:04
02. At Last 3:14
03. Dream Field (梦田) 3:33
04. I Didn't Know 5:01
05. Not So Easy (好不容易) 4:00
06. Song Dedicated to Mother (Woman Flower) (献给母亲的歌(女人花) 4:27
07. Por una Cabeza 3:45
08. Concerto pour une Voix 4:19
09. Singing In The Rain 4:16
10. Indifferent Love (冷漠地爱着) 5:19
11. Single 4:14
12. Autumn Concentration (秋意浓) 5:45
13. The South Sea Girl (南海姑娘) 3:47
14. Letting Go (放下) 4:05
15. Until the End of the World (直到世界末日) 5:31

Описание:

Продолжительность: 01:10:59
Год выпуска: 2012
All songs were sung and recorded live at Beijing Huasheng Tianqiao Theater in April 2012.

Качество: Blu-ray
Контейнер: BDMV
Видео кодек: MPEG4
Аудио кодек: DTS
Видео: MPEG4 Video (H264) 1920x1080 23.976fps 25.0Mbps
Аудио 1: DTS-HD MA 5.1 (96 kHz / 8658 kbps / 24-bit)
Аудио 2: Dolby TrueHD 5.1 (96 kHz / 8044 kbps / 24-bit)
Аудио 3: DTS 2.0 (48 kHz / 768 kbps / 24-bit)
Аудио 4: Dolby Digital 2.0 (640 kbps)

Отчёт DVDInfo/MediaInfo/BDInfo
Disc Title: Jane Zhang - Listen to Jane Z Live
Disc Size: 23 483 838 386 bytes
Protection: AACS
BD-Java: No
BDInfo: 0.5.6

Notes:

BDINFO HOME:
Cinema Squid
http://www.cinemasquid.com/blu-ray/tools/bdinfo

INCLUDES FORUMS REPORT FOR:
AVS Forum Blu-ray Audio and Video Specifications Thread
http://www.avsforum.com/avs-vb/showthread.php?t=1155731

********************
PLAYLIST: 00010.MPLS
********************

<--- BEGIN FORUMS PASTE --->
Код:
Total Video
Title Codec Length Movie Size Disc Size Bitrate Bitrate Main Audio Track Secondary Audio Track
----- ------ ------- -------------- -------------- ------- ------- ------------------ ---------------------
00010.MPLS AVC 1:10:59 23 056 413 504 23 483 838 386 43,30 21,15 DD AC3 2.0 640Kbps DTS 2.0 768Kbps (48kHz/24-bit)
Код:
DISC INFO:

Disc Title: Jane Zhang - Listen to Jane Z Live
Disc Size: 23 483 838 386 bytes
Protection: AACS
BD-Java: No
BDInfo: 0.5.6

PLAYLIST REPORT:

Name: 00010.MPLS
Length: 1:10:59 (h:m:s)
Size: 23 056 413 504 bytes
Total Bitrate: 43,30 Mbps

VIDEO:

Codec Bitrate Description
----- ------- -----------
MPEG-4 AVC Video 21145 kbps 1080p / 23,976 fps / 16:9 / High Profile 4.1

AUDIO:

Codec Language Bitrate Description
----- -------- ------- -----------
Dolby Digital Audio Chinese 640 kbps 2.0 / 48 kHz / 640 kbps
DTS Audio Chinese 768 kbps 2.0 / 48 kHz / 768 kbps / 24-bit
DTS-HD Master Audio Chinese 8658 kbps 5.1 / 96 kHz / 8658 kbps / 24-bit (DTS Core: 5.1 / 48 kHz / 1509 kbps / 24-bit)
Dolby TrueHD Audio Chinese 8044 kbps 5.1 / 96 kHz / 8044 kbps / 24-bit (AC3 Embedded: 5.1 / 48 kHz / 640 kbps)

SUBTITLES:

Codec Language Bitrate Description
----- -------- ------- -----------
Presentation Graphics Chinese 13,036 kbps
Presentation Graphics Chinese 13,254 kbps

FILES:

Name Time In Length Size Total Bitrate
---- ------- ------ ---- -------------
00008.M2TS 0:00:00.000 1:10:59.964 23 056 413 504 43 299

CHAPTERS:

Number Time In Length Avg Video Rate Max 1-Sec Rate Max 1-Sec Time Max 5-Sec Rate Max 5-Sec Time Max 10Sec Rate Max 10Sec Time Avg Frame Size Max Frame Size Max Frame Time
------ ------- ------ -------------- -------------- -------------- -------------- -------------- -------------- -------------- -------------- -------------- --------------
1 0:00:00.000 0:02:25.145 20 290 kbps 30 913 kbps 00:01:13.907 25 585 kbps 00:01:10.361 23 164 kbps 00:02:00.120 105 750 bytes 666 899 bytes 00:02:10.130
2 0:02:25.145 0:04:36.192 21 094 kbps 33 934 kbps 00:03:20.241 29 634 kbps 00:03:18.656 25 757 kbps 00:03:17.405 109 976 bytes 716 172 bytes 00:06:31.474
3 0:07:01.337 0:03:39.427 21 679 kbps 32 519 kbps 00:08:18.039 26 750 kbps 00:08:21.834 25 775 kbps 00:08:15.870 113 024 bytes 827 335 bytes 00:08:15.912
4 0:10:40.765 0:05:59.067 21 161 kbps 28 137 kbps 00:10:50.858 25 644 kbps 00:10:46.812 24 133 kbps 00:12:58.277 110 323 bytes 630 034 bytes 00:12:57.026
5 0:16:39.832 0:04:35.692 20 677 kbps 31 032 kbps 00:16:44.628 26 942 kbps 00:16:42.751 24 121 kbps 00:19:45.726 107 800 bytes 732 139 bytes 00:19:00.180
6 0:21:15.524 0:05:47.221 20 369 kbps 37 418 kbps 00:23:08.387 28 595 kbps 00:23:07.594 25 446 kbps 00:21:19.903 106 195 bytes 658 344 bytes 00:27:02.746
7 0:27:02.746 0:03:48.436 22 315 kbps 31 804 kbps 00:27:03.246 26 173 kbps 00:27:28.980 25 264 kbps 00:27:27.812 116 338 bytes 569 482 bytes 00:30:41.881
8 0:30:51.182 0:04:18.925 22 248 kbps 33 666 kbps 00:31:19.168 26 723 kbps 00:32:07.008 25 078 kbps 00:32:03.546 115 989 bytes 607 827 bytes 00:32:09.761
9 0:35:10.107 0:04:15.254 23 118 kbps 25 454 kbps 00:38:09.787 24 519 kbps 00:37:17.026 24 264 kbps 00:37:14.649 120 528 bytes 223 587 bytes 00:35:10.358
10 0:39:25.362 0:05:19.319 22 416 kbps 27 501 kbps 00:42:57.533 24 466 kbps 00:44:29.792 23 843 kbps 00:42:05.773 116 868 bytes 685 687 bytes 00:42:57.575
11 0:44:44.681 0:04:16.255 21 175 kbps 31 491 kbps 00:46:09.975 25 349 kbps 00:46:54.186 24 623 kbps 00:47:53.036 110 399 bytes 556 763 bytes 00:46:53.811
12 0:49:00.937 0:06:20.671 20 312 kbps 31 268 kbps 00:52:27.435 25 756 kbps 00:52:57.215 25 214 kbps 00:52:51.585 105 896 bytes 729 800 bytes 00:52:01.785
13 0:55:21.609 0:03:51.940 23 054 kbps 30 600 kbps 00:55:36.541 26 658 kbps 00:55:41.921 25 104 kbps 00:55:41.796 120 195 bytes 764 893 bytes 00:55:37.500
14 0:59:13.549 0:04:07.747 21 659 kbps 33 866 kbps 01:00:10.523 26 471 kbps 01:01:10.500 25 183 kbps 01:00:09.981 112 919 bytes 774 324 bytes 01:01:10.541
15 1:03:21.297 0:07:37.665 18 330 kbps 27 790 kbps 01:04:36.414 24 981 kbps 01:04:55.266 24 224 kbps 01:08:45.162 95 565 bytes 465 961 bytes 01:04:55.349
16 1:10:58.962 0:00:01.001 1 102 kbps 1 102 kbps 01:10:58.963 0 kbps 00:00:00.000 0 kbps 00:00:00.000 5 744 bytes 21 521 bytes 01:10:59.255

STREAM DIAGNOSTICS:

File PID Type Codec Language Seconds Bitrate Bytes Packets
---- --- ---- ----- -------- -------------- -------------- ------------- -----
00008.M2TS 4113 (0x1011) 0x1B AVC 4259,881 21 146 11 259 740 317 61 253 732
00008.M2TS 4352 (0x1100) 0x81 AC3 zho (Chinese) 4259,881 640 340 797 440 1 996 860
00008.M2TS 4353 (0x1101) 0x82 DTS zho (Chinese) 4259,881 755 401 768 232 2 396 232
00008.M2TS 4354 (0x1102) 0x83 TrueHD zho (Chinese) 4259,881 8 685 4 624 513 626 28 320 896
00008.M2TS 4355 (0x1103) 0x86 DTS-HD MA zho (Chinese) 4259,881 8 658 4 610 328 584 25 720 225
00008.M2TS 4608 (0x1200) 0x90 PGS zho (Chinese) 4259,881 13 6 941 795 40 957
00008.M2TS 4609 (0x1201) 0x90 PGS zho (Chinese) 4259,881 13 7 057 874 41 575
<---- END FORUMS PASTE ---->

QUICK SUMMARY:

Disc Title: Jane Zhang - Listen to Jane Z Live
Disc Size: 23 483 838 386 bytes
Protection: AACS
BD-Java: No
Playlist: 00010.MPLS
Size: 23 056 413 504 bytes
Length: 1:10:59
Total Bitrate: 43,30 Mbps
Video: MPEG-4 AVC Video / 21145 kbps / 1080p / 23,976 fps / 16:9 / High Profile 4.1
Audio: Chinese / Dolby Digital Audio / 2.0 / 48 kHz / 640 kbps
Audio: Chinese / DTS Audio / 2.0 / 48 kHz / 768 kbps / 24-bit
Audio: Chinese / DTS-HD Master Audio / 5.1 / 96 kHz / 8658 kbps / 24-bit (DTS Core: 5.1 / 48 kHz / 1509 kbps / 24-bit)
Audio: Chinese / Dolby TrueHD Audio / 5.1 / 96 kHz / 8044 kbps / 24-bit (AC3 Embedded: 5.1 / 48 kHz / 640 kbps)
Subtitle: Chinese / 13,036 kbps
Subtitle: Chinese / 13,254 kbps

********************
PLAYLIST: 00006.MPLS
********************

<--- BEGIN FORUMS PASTE --->
Код:
Total Video
Title Codec Length Movie Size Disc Size Bitrate Bitrate Main Audio Track Secondary Audio Track
----- ------ ------- -------------- -------------- ------- ------- ------------------ ---------------------
00006.MPLS AVC 0:01:08 143 124 480 23 483 838 386 16,78 14,10 DD AC3 2.0 448Kbps
Код:
DISC INFO:

Disc Title: Jane Zhang - Listen to Jane Z Live
Disc Size: 23 483 838 386 bytes
Protection: AACS
BD-Java: No
BDInfo: 0.5.6

PLAYLIST REPORT:

Name: 00006.MPLS
Length: 0:01:08 (h:m:s)
Size: 143 124 480 bytes
Total Bitrate: 16,78 Mbps

VIDEO:

Codec Bitrate Description
----- ------- -----------
MPEG-4 AVC Video 14099 kbps 1080p / 23,976 fps / 16:9 / High Profile 4.1

AUDIO:

Codec Language Bitrate Description
----- -------- ------- -----------
Dolby Digital Audio Chinese 448 kbps 2.0 / 48 kHz / 448 kbps
Dolby Digital Audio Chinese 448 kbps 2.0 / 48 kHz / 448 kbps
Dolby Digital Audio Chinese 448 kbps 2.0 / 48 kHz / 448 kbps
Dolby Digital Audio Chinese 448 kbps 2.0 / 48 kHz / 448 kbps

SUBTITLES:

Codec Language Bitrate Description
----- -------- ------- -----------
Presentation Graphics Chinese 0,166 kbps
Presentation Graphics Chinese 0,166 kbps
Interactive Graphics Chinese 9,414 kbps

FILES:

Name Time In Length Size Total Bitrate
---- ------- ------ ---- -------------
00004.M2TS 0:00:00.000 0:01:08.234 143 124 480 16 780

CHAPTERS:

Number Time In Length Avg Video Rate Max 1-Sec Rate Max 1-Sec Time Max 5-Sec Rate Max 5-Sec Time Max 10Sec Rate Max 10Sec Time Avg Frame Size Max Frame Size Max Frame Time
------ ------- ------ -------------- -------------- -------------- -------------- -------------- -------------- -------------- -------------- -------------- --------------
1 0:00:00.000 0:01:08.234 14 099 kbps 33 789 kbps 00:00:01.042 27 171 kbps 00:00:00.959 24 237 kbps 00:00:00.959 73 503 bytes 440 016 bytes 00:00:42.542

STREAM DIAGNOSTICS:

File PID Type Codec Language Seconds Bitrate Bytes Packets
---- --- ---- ----- -------- -------------- -------------- ------------- -----
00004.M2TS 4113 (0x1011) 0x1B AVC 68,151 14 116 120 251 147 654 479
00004.M2TS 4352 (0x1100) 0x81 AC3 zho (Chinese) 68,151 449 3 822 336 21 330
00004.M2TS 4353 (0x1101) 0x81 AC3 zho (Chinese) 68,151 449 3 822 336 21 330
00004.M2TS 4354 (0x1102) 0x81 AC3 zho (Chinese) 68,151 449 3 822 336 21 330
00004.M2TS 4355 (0x1103) 0x81 AC3 zho (Chinese) 68,151 449 3 822 336 21 330
00004.M2TS 4608 (0x1200) 0x90 PGS zho (Chinese) 68,151 0 1 417 16
00004.M2TS 4609 (0x1201) 0x90 PGS zho (Chinese) 68,151 0 1 417 16
00004.M2TS 5120 (0x1400) 0x91 IGS zho (Chinese) 68,151 9 80 292 444
<---- END FORUMS PASTE ---->

QUICK SUMMARY:

Disc Title: Jane Zhang - Listen to Jane Z Live
Disc Size: 23 483 838 386 bytes
Protection: AACS
BD-Java: No
Playlist: 00006.MPLS
Size: 143 124 480 bytes
Length: 0:01:08
Total Bitrate: 16,78 Mbps
Video: MPEG-4 AVC Video / 14099 kbps / 1080p / 23,976 fps / 16:9 / High Profile 4.1
Audio: Chinese / Dolby Digital Audio / 2.0 / 48 kHz / 448 kbps
Audio: Chinese / Dolby Digital Audio / 2.0 / 48 kHz / 448 kbps
Audio: Chinese / Dolby Digital Audio / 2.0 / 48 kHz / 448 kbps
Audio: Chinese / Dolby Digital Audio / 2.0 / 48 kHz / 448 kbps
Subtitle: Chinese / 0,166 kbps
Subtitle: Chinese / 0,166 kbps
Subtitle: Chinese / 9,414 kbps

********************
PLAYLIST: 00009.MPLS
********************

<--- BEGIN FORUMS PASTE --->
Код:
Total Video
Title Codec Length Movie Size Disc Size Bitrate Bitrate Main Audio Track Secondary Audio Track
----- ------ ------- -------------- -------------- ------- ------- ------------------ ---------------------
00009.MPLS AVC 0:00:48 49 711 104 23 483 838 386 8,17 5,82 DD AC3 2.0 448Kbps
Код:
DISC INFO:

Disc Title: Jane Zhang - Listen to Jane Z Live
Disc Size: 23 483 838 386 bytes
Protection: AACS
BD-Java: No
BDInfo: 0.5.6

PLAYLIST REPORT:

Name: 00009.MPLS
Length: 0:00:48 (h:m:s)
Size: 49 711 104 bytes
Total Bitrate: 8,17 Mbps

VIDEO:

Codec Bitrate Description
----- ------- -----------
MPEG-4 AVC Video 5823 kbps 1080p / 23,976 fps / 16:9 / High Profile 4.1

AUDIO:

Codec Language Bitrate Description
----- -------- ------- -----------
Dolby Digital Audio Chinese 448 kbps 2.0 / 48 kHz / 448 kbps
Dolby Digital Audio Chinese 448 kbps 2.0 / 48 kHz / 448 kbps
Dolby Digital Audio Chinese 448 kbps 2.0 / 48 kHz / 448 kbps
Dolby Digital Audio Chinese 448 kbps 2.0 / 48 kHz / 448 kbps

SUBTITLES:

Codec Language Bitrate Description
----- -------- ------- -----------
Presentation Graphics Chinese 0,233 kbps
Presentation Graphics Chinese 0,233 kbps
Interactive Graphics Chinese 27,206 kbps

FILES:

Name Time In Length Size Total Bitrate
---- ------- ------ ---- -------------
00007.M2TS 0:00:00.000 0:00:48.673 49 711 104 8 164

CHAPTERS:

Number Time In Length Avg Video Rate Max 1-Sec Rate Max 1-Sec Time Max 5-Sec Rate Max 5-Sec Time Max 10Sec Rate Max 10Sec Time Avg Frame Size Max Frame Size Max Frame Time
------ ------- ------ -------------- -------------- -------------- -------------- -------------- -------------- -------------- -------------- -------------- --------------
1 0:00:00.000 0:00:48.673 5 828 kbps 26 651 kbps 00:00:01.292 12 152 kbps 00:00:00.250 8 860 kbps 00:00:00.542 30 357 bytes 380 734 bytes 00:00:04.504

STREAM DIAGNOSTICS:

File PID Type Codec Language Seconds Bitrate Bytes Packets
---- --- ---- ----- -------- -------------- -------------- ------------- -----
00007.M2TS 4113 (0x1011) 0x1B AVC 48,549 5 843 35 457 000 193 385
00007.M2TS 4352 (0x1100) 0x81 AC3 zho (Chinese) 48,549 449 2 727 424 15 220
00007.M2TS 4353 (0x1101) 0x81 AC3 zho (Chinese) 48,549 449 2 727 424 15 220
00007.M2TS 4354 (0x1102) 0x81 AC3 zho (Chinese) 48,549 449 2 727 424 15 220
00007.M2TS 4355 (0x1103) 0x81 AC3 zho (Chinese) 48,549 449 2 727 424 15 220
00007.M2TS 4608 (0x1200) 0x90 PGS zho (Chinese) 48,549 0 1 417 16
00007.M2TS 4609 (0x1201) 0x90 PGS zho (Chinese) 48,549 0 1 417 16
00007.M2TS 5120 (0x1400) 0x91 IGS zho (Chinese) 48,549 27 165 669 925
<---- END FORUMS PASTE ---->

QUICK SUMMARY:

Disc Title: Jane Zhang - Listen to Jane Z Live
Disc Size: 23 483 838 386 bytes
Protection: AACS
BD-Java: No
Playlist: 00009.MPLS
Size: 49 711 104 bytes
Length: 0:00:48
Total Bitrate: 8,17 Mbps
Video: MPEG-4 AVC Video / 5823 kbps / 1080p / 23,976 fps / 16:9 / High Profile 4.1
Audio: Chinese / Dolby Digital Audio / 2.0 / 48 kHz / 448 kbps
Audio: Chinese / Dolby Digital Audio / 2.0 / 48 kHz / 448 kbps
Audio: Chinese / Dolby Digital Audio / 2.0 / 48 kHz / 448 kbps
Audio: Chinese / Dolby Digital Audio / 2.0 / 48 kHz / 448 kbps
Subtitle: Chinese / 0,233 kbps
Subtitle: Chinese / 0,233 kbps
Subtitle: Chinese / 27,206 kbps

********************
PLAYLIST: 00007.MPLS
********************

<--- BEGIN FORUMS PASTE --->
Код:
Total Video
Title Codec Length Movie Size Disc Size Bitrate Bitrate Main Audio Track Secondary Audio Track
----- ------ ------- -------------- -------------- ------- ------- ------------------ ---------------------
00007.MPLS AVC 0:00:34 65 421 312 23 483 838 386 15,08 12,43 DD AC3 2.0 448Kbps
Код:
DISC INFO:

Disc Title: Jane Zhang - Listen to Jane Z Live
Disc Size: 23 483 838 386 bytes
Protection: AACS
BD-Java: No
BDInfo: 0.5.6

PLAYLIST REPORT:

Name: 00007.MPLS
Length: 0:00:34 (h:m:s)
Size: 65 421 312 bytes
Total Bitrate: 15,08 Mbps

VIDEO:

Codec Bitrate Description
----- ------- -----------
MPEG-4 AVC Video 12433 kbps 1080p / 23,976 fps / 16:9 / High Profile 4.1

AUDIO:

Codec Language Bitrate Description
----- -------- ------- -----------
Dolby Digital Audio Chinese 448 kbps 2.0 / 48 kHz / 448 kbps
Dolby Digital Audio Chinese 448 kbps 2.0 / 48 kHz / 448 kbps
Dolby Digital Audio Chinese 448 kbps 2.0 / 48 kHz / 448 kbps
Dolby Digital Audio Chinese 448 kbps 2.0 / 48 kHz / 448 kbps

SUBTITLES:

Codec Language Bitrate Description
----- -------- ------- -----------
Presentation Graphics Chinese 0,000 kbps
Presentation Graphics Chinese 0,000 kbps
Interactive Graphics Chinese 44,770 kbps

FILES:

Name Time In Length Size Total Bitrate
---- ------- ------ ---- -------------
00005.M2TS 0:00:00.000 0:00:34.701 65 421 312 15 082

CHAPTERS:

Number Time In Length Avg Video Rate Max 1-Sec Rate Max 1-Sec Time Max 5-Sec Rate Max 5-Sec Time Max 10Sec Rate Max 10Sec Time Avg Frame Size Max Frame Size Max Frame Time
------ ------- ------ -------------- -------------- -------------- -------------- -------------- -------------- -------------- -------------- -------------- --------------
1 0:00:00.000 0:00:34.701 12 433 kbps 29 467 kbps 00:00:01.251 17 748 kbps 00:00:00.417 14 910 kbps 00:00:00.542 64 821 bytes 389 960 bytes 00:00:02.252

STREAM DIAGNOSTICS:

File PID Type Codec Language Seconds Bitrate Bytes Packets
---- --- ---- ----- -------- -------------- -------------- ------------- -----
00005.M2TS 4113 (0x1011) 0x1B AVC 34,535 12 493 53 931 344 293 589
00005.M2TS 4352 (0x1100) 0x81 AC3 zho (Chinese) 34,535 450 1 944 320 10 850
00005.M2TS 4353 (0x1101) 0x81 AC3 zho (Chinese) 34,535 450 1 944 320 10 850
00005.M2TS 4354 (0x1102) 0x81 AC3 zho (Chinese) 34,535 450 1 944 320 10 850
00005.M2TS 4355 (0x1103) 0x81 AC3 zho (Chinese) 34,535 450 1 944 320 10 850
00005.M2TS 4608 (0x1200) 0x90 PGS zho (Chinese) 34,535 0 0 0
00005.M2TS 4609 (0x1201) 0x90 PGS zho (Chinese) 34,535 0 0 0
00005.M2TS 5120 (0x1400) 0x91 IGS zho (Chinese) 34,535 45 194 199 1 075
<---- END FORUMS PASTE ---->

QUICK SUMMARY:

Disc Title: Jane Zhang - Listen to Jane Z Live
Disc Size: 23 483 838 386 bytes
Protection: AACS
BD-Java: No
Playlist: 00007.MPLS
Size: 65 421 312 bytes
Length: 0:00:34
Total Bitrate: 15,08 Mbps
Video: MPEG-4 AVC Video / 12433 kbps / 1080p / 23,976 fps / 16:9 / High Profile 4.1
Audio: Chinese / Dolby Digital Audio / 2.0 / 48 kHz / 448 kbps
Audio: Chinese / Dolby Digital Audio / 2.0 / 48 kHz / 448 kbps
Audio: Chinese / Dolby Digital Audio / 2.0 / 48 kHz / 448 kbps
Audio: Chinese / Dolby Digital Audio / 2.0 / 48 kHz / 448 kbps
Subtitle: Chinese / 0,000 kbps
Subtitle: Chinese / 0,000 kbps
Subtitle: Chinese / 44,770 kbps

********************
PLAYLIST: 00008.MPLS
********************

<--- BEGIN FORUMS PASTE --->
Код:
Total Video
Title Codec Length Movie Size Disc Size Bitrate Bitrate Main Audio Track Secondary Audio Track
----- ------ ------- -------------- -------------- ------- ------- ------------------ ---------------------
00008.MPLS AVC 0:00:30 39 702 528 23 483 838 386 10,33 7,87 DD AC3 2.0 448Kbps
Код:
DISC INFO:

Disc Title: Jane Zhang - Listen to Jane Z Live
Disc Size: 23 483 838 386 bytes
Protection: AACS
BD-Java: No
BDInfo: 0.5.6

PLAYLIST REPORT:

Name: 00008.MPLS
Length: 0:00:30 (h:m:s)
Size: 39 702 528 bytes
Total Bitrate: 10,33 Mbps

VIDEO:

Codec Bitrate Description
----- ------- -----------
MPEG-4 AVC Video 7872 kbps 1080p / 23,976 fps / 16:9 / High Profile 4.1

AUDIO:

Codec Language Bitrate Description
----- -------- ------- -----------
Dolby Digital Audio Chinese 448 kbps 2.0 / 48 kHz / 448 kbps
Dolby Digital Audio Chinese 448 kbps 2.0 / 48 kHz / 448 kbps
Dolby Digital Audio Chinese 448 kbps 2.0 / 48 kHz / 448 kbps
Dolby Digital Audio Chinese 448 kbps 2.0 / 48 kHz / 448 kbps

SUBTITLES:

Codec Language Bitrate Description
----- -------- ------- -----------
Presentation Graphics Chinese 0,000 kbps
Presentation Graphics Chinese 0,000 kbps
Interactive Graphics Chinese 55,569 kbps

FILES:

Name Time In Length Size Total Bitrate
---- ------- ------ ---- -------------
00006.M2TS 0:00:00.000 0:00:30.739 39 702 528 10 333

CHAPTERS:

Number Time In Length Avg Video Rate Max 1-Sec Rate Max 1-Sec Time Max 5-Sec Rate Max 5-Sec Time Max 10Sec Rate Max 10Sec Time Avg Frame Size Max Frame Size Max Frame Time
------ ------- ------ -------------- -------------- -------------- -------------- -------------- -------------- -------------- -------------- -------------- --------------
1 0:00:00.000 0:00:30.739 7 872 kbps 25 690 kbps 00:00:01.292 13 183 kbps 00:00:00.291 10 102 kbps 00:00:00.542 41 041 bytes 387 812 bytes 00:00:03.753

STREAM DIAGNOSTICS:

File PID Type Codec Language Seconds Bitrate Bytes Packets
---- --- ---- ----- -------- -------------- -------------- ------------- -----
00006.M2TS 4113 (0x1011) 0x1B AVC 30,656 7 893 30 247 214 164 799
00006.M2TS 4352 (0x1100) 0x81 AC3 zho (Chinese) 30,656 449 1 722 112 9 610
00006.M2TS 4353 (0x1101) 0x81 AC3 zho (Chinese) 30,656 449 1 722 112 9 610
00006.M2TS 4354 (0x1102) 0x81 AC3 zho (Chinese) 30,656 449 1 722 112 9 610
00006.M2TS 4355 (0x1103) 0x81 AC3 zho (Chinese) 30,656 449 1 722 112 9 610
00006.M2TS 4608 (0x1200) 0x90 PGS zho (Chinese) 30,656 0 0 0
00006.M2TS 4609 (0x1201) 0x90 PGS zho (Chinese) 30,656 0 0 0
00006.M2TS 5120 (0x1400) 0x91 IGS zho (Chinese) 30,656 56 213 517 1 187
<---- END FORUMS PASTE ---->

QUICK SUMMARY:

Disc Title: Jane Zhang - Listen to Jane Z Live
Disc Size: 23 483 838 386 bytes
Protection: AACS
BD-Java: No
Playlist: 00008.MPLS
Size: 39 702 528 bytes
Length: 0:00:30
Total Bitrate: 10,33 Mbps
Video: MPEG-4 AVC Video / 7872 kbps / 1080p / 23,976 fps / 16:9 / High Profile 4.1
Audio: Chinese / Dolby Digital Audio / 2.0 / 48 kHz / 448 kbps
Audio: Chinese / Dolby Digital Audio / 2.0 / 48 kHz / 448 kbps
Audio: Chinese / Dolby Digital Audio / 2.0 / 48 kHz / 448 kbps
Audio: Chinese / Dolby Digital Audio / 2.0 / 48 kHz / 448 kbps
Subtitle: Chinese / 0,000 kbps
Subtitle: Chinese / 0,000 kbps
Subtitle: Chinese / 55,569 kbps

********************
PLAYLIST: 00011.MPLS
********************

<--- BEGIN FORUMS PASTE --->
Код:
Total Video
Title Codec Length Movie Size Disc Size Bitrate Bitrate Main Audio Track Secondary Audio Track
----- ------ ------- -------------- -------------- ------- ------- ------------------ ---------------------
00011.MPLS MPEG-2 0:00:30 40 826 880 23 483 838 386 10,80 9,75 DD AC3 2.0 448Kbps
Код:
DISC INFO:

Disc Title: Jane Zhang - Listen to Jane Z Live
Disc Size: 23 483 838 386 bytes
Protection: AACS
BD-Java: No
BDInfo: 0.5.6

PLAYLIST REPORT:

Name: 00011.MPLS
Length: 0:00:30 (h:m:s)
Size: 40 826 880 bytes
Total Bitrate: 10,80 Mbps

VIDEO:

Codec Bitrate Description
----- ------- -----------
MPEG-2 Video 9755 kbps 480i / 29,970 fps / 16:9

AUDIO:

Codec Language Bitrate Description
----- -------- ------- -----------
Dolby Digital Audio Chinese 448 kbps 2.0 / 48 kHz / 448 kbps

FILES:

Name Time In Length Size Total Bitrate
---- ------- ------ ---- -------------
00009.M2TS 0:00:00.000 0:00:30.230 40 826 880 10 804

CHAPTERS:

Number Time In Length Avg Video Rate Max 1-Sec Rate Max 1-Sec Time Max 5-Sec Rate Max 5-Sec Time Max 10Sec Rate Max 10Sec Time Avg Frame Size Max Frame Size Max Frame Time
------ ------- ------ -------------- -------------- -------------- -------------- -------------- -------------- -------------- -------------- -------------- --------------
1 0:00:00.000 0:00:30.230 9 755 kbps 14 125 kbps 00:00:14.748 11 664 kbps 00:00:10.844 11 281 kbps 00:00:14.614 40 685 bytes 147 530 bytes 00:00:14.647

STREAM DIAGNOSTICS:

File PID Type Codec Language Seconds Bitrate Bytes Packets
---- --- ---- ----- -------- -------------- -------------- ------------- -----
00009.M2TS 4113 (0x1011) 0x02 MPEG-2 30,097 9 798 36 860 222 200 849
00009.M2TS 4352 (0x1100) 0x81 AC3 zho (Chinese) 30,097 450 1 693 440 9 450
<---- END FORUMS PASTE ---->

QUICK SUMMARY:

Disc Title: Jane Zhang - Listen to Jane Z Live
Disc Size: 23 483 838 386 bytes
Protection: AACS
BD-Java: No
Playlist: 00011.MPLS
Size: 40 826 880 bytes
Length: 0:00:30
Total Bitrate: 10,80 Mbps
Video: MPEG-2 Video / 9755 kbps / 480i / 29,970 fps / 16:9
Audio: Chinese / Dolby Digital Audio / 2.0 / 48 kHz / 448 kbps
Скриншоты видео
2012 Jane Zhang - Listen to Jane Z Live [Blu-ray] 02012 Jane Zhang - Listen to Jane Z Live [Blu-ray] 12012 Jane Zhang - Listen to Jane Z Live [Blu-ray] 22012 Jane Zhang - Listen to Jane Z Live [Blu-ray] 32012 Jane Zhang - Listen to Jane Z Live [Blu-ray] 42012 Jane Zhang - Listen to Jane Z Live [Blu-ray] 52012 Jane Zhang - Listen to Jane Z Live [Blu-ray] 62012 Jane Zhang - Listen to Jane Z Live [Blu-ray] 72012 Jane Zhang - Listen to Jane Z Live [Blu-ray] 82012 Jane Zhang - Listen to Jane Z Live [Blu-ray] 92012 Jane Zhang - Listen to Jane Z Live [Blu-ray] 102012 Jane Zhang - Listen to Jane Z Live [Blu-ray] 112012 Jane Zhang - Listen to Jane Z Live [Blu-ray] 12
Any questions - support@pro-jazz.com.
Есть вопросы - support@pro-jazz.com
642
Нет комментариев. Ваш будет первым!