Поиск

2019 Snarky Puppy - Immigrance At Salle Pleyel Paris [HDTV 1080p]

2019 Snarky Puppy - Immigrance At Salle Pleyel Paris [HDTV 1080p]
Дата проведения концерта (записи):
22 ноября 2019
Место проведения:
Salle Pleyel, Paris, France
Время звучания:
02:14:14
Главы (разбивка по трекам):
нет
Состав:

Michael League - (Bass, oud, percussions)
Mike Maher - (Trompette, bugle / Trumpet, flugelhorn)
Chris Bullock - (saxophones, clarinette, flute, bansuri, percussions)
Zach Brock - (Violon / violin)
Bobby Sparks - (claviers / keyboards)
Shaun Martin - (claviers / keyboards)
Justin Stanton - (claviers, trompette / keyboards, trumpet)
Chris McQueen - (guitare / guitar)
Jason Thomas - (batterie / drums)
Keita Ogawa - (percussions)

Видео:
AVC,1920*1080p (16:9), 4861kbps, 25fps
Аудио#1:
AAC, 256kbps, 48kHz, 2ch
Отчёт DVDInfo/MediaInfo/BDInfo
Общее
Полное имя : \\2019 Snarky Puppy - Immigrance At Salle Pleyel Paris [HDTV 1080p].mp4
Формат : MPEG-4
Профиль формата : Base Media
Идентификатор кодека : isom (isom/iso2/avc1/mp41)
Размер файла : 4,80 Гбайт
Продолжительность : 2 ч. 14 м.
Режим общего битрейта : Переменный
Общий поток : 5122 Кбит/сек
Программа кодирования : VideoReDo (Lavf56.25.101)

Видео
Идентификатор : 1
Формат : AVC
Формат/Информация : Advanced Video Codec
Профиль формата : High@L4.1
Настройки формата : CABAC / 4 Ref Frames
Параметр CABAC формата : Да
Параметр RefFrames формата : 4 кадра
Параметр GOP формата : M=3, N=33
Идентификатор кодека : avc1
Идентификатор кодека/Информация : Advanced Video Coding
Продолжительность : 2 ч. 14 м.
Вид битрейта : Переменный
Битрейт : 4861 Кбит/сек
Максимальный битрейт : 7275 Кбит/сек
Ширина : 1920 пикселей
Высота : 1080 пикселей
Соотношение сторон : 16:9
Режим частоты кадров : Постоянный
Частота кадров : 25,000 кадров/сек
Стандарт вещания : PAL
Цветовое пространство : YUV
Субдискретизация насыщенности : 4:2:0
Битовая глубина : 8 бит
Тип развёртки : Прогрессивная
Бит/(Пиксели*Кадры) : 0.094
Размер потока : 4,56 Гбайт (95%)
Цветовой диапазон : Limited
Основные цвета : BT.709
Характеристики трансфера : BT.709
Коэффициенты матрицы : BT.709
Codec configuration box : avcC

Аудио
Идентификатор : 2
Формат : AAC LC
Формат/Информация : Advanced Audio Codec Low Complexity
Идентификатор кодека : mp4a-40-2
Продолжительность : 2 ч. 14 м.
Duration_LastFrame : -21 мс.
Вид битрейта : Переменный
Битрейт : 253 Кбит/сек
Максимальный битрейт : 256 Кбит/сек
Каналы : 2 канала
ChannelLayout : L R
Частота : 48,0 КГц
Частота кадров : 46,875 кадров/сек (1024 SPF)
Метод сжатия : С потерями
Размер потока : 243 Мбайт (5%)
Язык : Russian
Default : Да
AlternateGroup/String : 1
Скриншоты видео
2019 Snarky Puppy - Immigrance At Salle Pleyel Paris [HDTV 1080p] 02019 Snarky Puppy - Immigrance At Salle Pleyel Paris [HDTV 1080p] 12019 Snarky Puppy - Immigrance At Salle Pleyel Paris [HDTV 1080p] 22019 Snarky Puppy - Immigrance At Salle Pleyel Paris [HDTV 1080p] 32019 Snarky Puppy - Immigrance At Salle Pleyel Paris [HDTV 1080p] 42019 Snarky Puppy - Immigrance At Salle Pleyel Paris [HDTV 1080p] 5
По всем вопросам пишите личное сообщение пользователю M0p94ok.
720
Нет комментариев. Ваш будет первым!