Вы используете незарегистрированную версию компонента "Вкладки"!

Поиск

2017 Ambrose Akinmusire - At 51 Montreux Jazz Fest [SD]

2017 Ambrose Akinmusire - At 51 Montreux Jazz Fest [SD]
Время звучания:
01:23:06
Главы (разбивка по трекам):
нет
Качество:
BDRip
Контейнер:
BDAV
Состав:
  • Ambrose Akinmusire - trompette
  • Sam Harris - piano
  • Harish Raghavan - basse
  • Justin Brown - batterie
Видео:
AVC,720*576p (16:9), 976kbps, 25fps
Аудио#1:
AAC-LC, 256kbps, 48kHz, 2 channel stereo
Отчёт DVDInfo/MediaInfo/BDInfo
Общее
Полное имя : \\Nasf8f4eb\6\Videos\SD\A\Ambrose Akinmusire\2017 Ambrose Akinmusire - At 51 Montreux Jazz Fest [SD].mp4
Формат : MPEG-4
Профиль формата : Base Media
Идентификатор кодека : isom (isom/iso2/avc1/mp41)
Размер файла : 741 Мбайт
Продолжительность : 1 ч. 23 м.
Общий поток : 1246 Кбит/сек
Программа кодирования : VideoReDo (Lavf57.71.100)

Видео
Идентификатор : 1
Формат : AVC
Формат/Информация : Advanced Video Codec
Профиль формата : High@L4.1
Настройки формата : CABAC / 4 Ref Frames
Параметр CABAC формата : Да
Параметр RefFrames формата : 4 кадра
Идентификатор кодека : avc1
Идентификатор кодека/Информация : Advanced Video Coding
Продолжительность : 1 ч. 23 м.
Битрейт : 976 Кбит/сек
Ширина : 720 пикселей
Высота : 576 пикселей
Соотношение сторон : 16:9
Режим частоты кадров : Постоянный
Частота кадров : 25,000 кадров/сек
Стандарт вещания : PAL
Цветовое пространство : YUV
Субдискретизация насыщенности : 4:2:0
Битовая глубина : 8 бит
Тип развёртки : Прогрессивная
Бит/(Пиксели*Кадры) : 0.094
Размер потока : 580 Мбайт (78%)
Цветовой диапазон : Limited
Основные цвета : BT.601 PAL
Характеристики трансфера : BT.470 System B/G
Коэффициенты матрицы : BT.470 System B/G
Codec configuration box : avcC

Аудио
Идентификатор : 2
Формат : AAC LC
Формат/Информация : Advanced Audio Codec Low Complexity
Идентификатор кодека : mp4a-40-2
Продолжительность : 1 ч. 23 м.
Duration_LastFrame : -21 мс.
Вид битрейта : Постоянный
Битрейт : 256 Кбит/сек
Каналы : 2 канала
ChannelLayout : L R
Частота : 48,0 КГц
Частота кадров : 46,875 кадров/сек (1024 SPF)
Метод сжатия : С потерями
Размер потока : 152 Мбайт (21%)
Язык : French
Default : Да
AlternateGroup/String : 1
Any questions - support@pro-jazz.com. Есть вопросы - support@pro-jazz.com
363
Нет комментариев. Ваш будет первым!