Вы используете незарегистрированную версию компонента "Вкладки"!

Поиск

2016 Slowly Rolling Camera - Lotos Jazz Fest [SD]

2016 Slowly Rolling Camera - Lotos Jazz Fest [SD]
Дата проведения концерта (записи):
4 марта 2016
Место проведения:
Lotos Jazz Festival, 18. Bielska Zadymka Jazzowa, Poland
Время звучания:
00:43:04
Главы (разбивка по трекам):
нет
Качество:
BDRip
Контейнер:
BDAV
Состав:
  • Double Bass – Aidan Thorne
  • Drums – Elliot Bennett
  • Electronics – Deri Roberts
  • Guitar – Stuart McCallum
  • Keyboards – Dave Stapleton
  • Saxophone – Ben Waghorn
  • Vocals – Dionne Bennett
Видео:
AVC,704*576p (16:9), 1038kbps, 25fps
Аудио#1:
MP2, 256kbps, 48kHz, 2ch
Источник:
собственная запись
Отчёт DVDInfo/MediaInfo/BDInfo
Общее
Полное имя : \\2016 Slowly Rolling Camera - Lotos Jazz Fest [SD].mp4
Формат : MPEG-4
Профиль формата : Base Media
Идентификатор кодека : isom (isom/iso2/avc1/mp41)
Размер файла : 402 Мбайт
Продолжительность : 43 м. 4 с.
Общий поток : 1306 Кбит/сек
Программа кодирования : VideoReDo (Lavf57.71.100)

Видео
Идентификатор : 1
Формат : AVC
Формат/Информация : Advanced Video Codec
Профиль формата : High@L3
Настройки формата : CABAC / 4 Ref Frames
Параметр CABAC формата : Да
Параметр RefFrames формата : 4 кадра
Идентификатор кодека : avc1
Идентификатор кодека/Информация : Advanced Video Coding
Продолжительность : 43 м. 4 с.
Битрейт : 1038 Кбит/сек
Ширина : 704 пикселя
Высота : 576 пикселей
Соотношение сторон : 16:9
Режим частоты кадров : Постоянный
Частота кадров : 50,000 кадров/сек
Частота кадров в оригинале : 25,000 кадров/сек
Стандарт вещания : Component
Цветовое пространство : YUV
Субдискретизация насыщенности : 4:2:0
Битовая глубина : 8 бит
Тип развёртки : Чересстрочная
Метод сохранения типа развёртки : Раздельные поля
Порядок развёртки : Верхнее поле первое
Бит/(Пиксели*Кадры) : 0.051
Размер потока : 320 Мбайт (79%)
Цветовой диапазон : Limited
Основные цвета : BT.601 PAL
Характеристики трансфера : BT.470 System B/G
Коэффициенты матрицы : BT.470 System B/G
Codec configuration box : avcC

Аудио
Идентификатор : 2
Формат : MPEG Audio
Версия формата : Version 1
Профиль формата : Layer 2
Идентификатор кодека : mp4a-6B
Продолжительность : 43 м. 4 с.
Duration_LastFrame : -24 мс.
Вид битрейта : Постоянный
Битрейт : 256 Кбит/сек
Каналы : 2 канала
Частота : 48,0 КГц
Метод сжатия : С потерями
Размер потока : 78,9 Мбайт (20%)
Язык : French
Default : Да
AlternateGroup/String : 1
Any questions - support@pro-jazz.com. Есть вопросы - support@pro-jazz.com
394
Нет комментариев. Ваш будет первым!